<?xml version="1.0" standalone="no"?>
<!DOCTYPE svg PUBLIC "-//W3C//DTD SVG 1.1//EN" "http://www.w3.org/Graphics/SVG/1.1/DTD/svg11.dtd" >
<svg xmlns="http://www.w3.org/2000/svg">
<metadata></metadata>
<defs>
<font id="1942_report1942_report" horiz-adv-x="651" >
<font-face units-per-em="1000" ascent="800" descent="-200" />
<missing-glyph horiz-adv-x="648" />
<glyph unicode="&#xd;" horiz-adv-x="1000" />
<glyph unicode=" "  horiz-adv-x="648" />
<glyph unicode="&#x09;" horiz-adv-x="648" />
<glyph unicode="&#xa0;" horiz-adv-x="648" />
<glyph unicode="!" horiz-adv-x="648" d="M247 115q0 -26 3.5 -35.5t9.5 -14t13.5 -8t16.5 -16.5h83q1 0 4.5 4t5.5 6t5.5 10.5t5.5 10.5t11 10.5t10 10.5q0 1 0.5 13t0.5 18q0 4 -0.5 16t-0.5 16q-16 6 -27.5 13t-23 13.5t-25.5 11t-35 4.5q-14 0 -24.5 -8.5t-18 -21t-11 -27t-3.5 -26.5zM279 301q1 -2 5 -5.5 t6 -4.5h4q17 0 32.5 3.5t25.5 17.5q5 6 13 18t8 13v156q8 3 9.5 8t1.5 12q0 26 -10.5 54.5t-21.5 50.5q-3 7 -11 19t-10 12q-8 3 -18.5 -2.5t-19.5 -14.5t-16 -19t-8 -16l-0.5 -13.5t-0.5 -21.5q0 -66 3.5 -135.5t7.5 -131.5zM300 374h21v-21h-21v21z" />
<glyph unicode="&#x22;" horiz-adv-x="648" d="M386 374q0 -1 5 -5t6 -5q2 -15 1 -31.5t1 -30.5t10 -23.5t29 -9.5q12 0 22 1t20 10q1 21 4.5 46.5t7.5 51.5t6.5 52t2.5 48v10q-1 7 -2.5 23.5t-3 34.5t-3 34.5t-2.5 22.5q-8 11 -19 18t-21.5 14.5t-19.5 16.5t-13 24q-1 -4 -4.5 -16t-5.5 -16l-4 -8t-7 -12.5t-7 -13 t-3 -7.5q-2 -9 -1 -19t1.5 -19t-1.5 -18t-9 -17q1 -6 4 -20.5t6.5 -31t6.5 -31.5t4 -21v-11v-10q0 -1 -2 -5.5t-4 -10t-3.5 -10t-1.5 -5.5zM220 426v-114q0 -11 5.5 -17t13 -9.5t16.5 -4.5t17 -1h21q0 13 1.5 45.5t3.5 69t3.5 69t1.5 45.5v34v29q0 4 -1.5 14.5t-3 22 t-3 21.5t-2.5 14q-2 1 -5.5 1.5t-5.5 0.5t-6 -0.5t-4 -1.5q-1 0 -4 -3t-6.5 -7t-6.5 -7t-4 -3q-16 -10 -26 -13.5t-16 -9t-8.5 -16t-2.5 -33.5v-32q0 -17 1.5 -34t6 -33t14.5 -27z" />
<glyph unicode="#" d="M306 32q0 -8 1 -22.5t4.5 -28.5t11 -24t21.5 -10q4 0 7.5 6.5t6.5 15.5l6 18t6 13q0 1 4.5 5t5.5 6q2 4 5.5 12l7 16t6 15t2.5 9q1 5 2.5 26.5t3 46t3 46t1.5 27.5l4 34t17 28q2 1 10.5 5t10.5 6q1 0 5 5t5 5h11q10 0 20.5 -0.5t19.5 -0.5q10 0 12 1t10.5 10t10.5 11 q7 5 11 6t6.5 2t3.5 3.5t1 9.5q0 5 -7.5 12.5t-17.5 14t-20 11t-14 4.5q-1 0 -3 -0.5l-2 -0.5q-1 0 -5.5 -3t-10 -7t-10 -7t-5.5 -4q-1 0 -5.5 -0.5t-6.5 -0.5q-8 0 -12.5 5.5t-6 13t-1.5 15.5v15v8t1 12t3.5 11t6.5 5h115v45q-23 0 -38.5 -7.5t-35.5 -7.5q-7 0 -17.5 4.5 t-20.5 11.5t-17.5 15t-7.5 15q0 18 6 35t6 35v10q-2 -2 -6 -10t-5 -11q-2 -6 -8 -20.5t-13 -31t-13 -31.5t-8 -21h-87q0 5 1 18.5t1.5 28.5t1 28.5t0.5 18.5q0 3 -4 11t-6 10q-1 -5 -3.5 -17t-6 -25t-7 -25t-4.5 -17q-5 -12 -16 -25.5t-26 -15.5q4 -1 14.5 -3.5t22.5 -6 t22 -6.5t14 -5q2 -1 10.5 -10t10.5 -11q7 -4 14.5 -6t14 -4t10.5 -7t4 -15q0 -7 -1 -9t-3 -2.5t-6.5 -1.5t-11.5 -7q-2 -1 -6.5 -6t-9.5 -10t-10 -9.5t-6 -5.5t-6 -1q-4 0 -9 0.5t-10 0.5h-6q-1 -1 -4 -5.5t-6.5 -10t-6.5 -10.5t-4 -6q-2 -2 -9 2.5t-9 4.5q0 2 -1.5 7 t-1.5 7q1 4 5 16t6 15q-2 1 -8 1.5t-8 0.5q-3 0 -9 -0.5t-6 -1.5q-2 -1 -5.5 -10t-5.5 -10q-2 -2 -8.5 2t-8.5 4q0 12 2.5 19.5t6.5 15t9 17.5t10 25q-9 6 -12.5 13t-7.5 14t-9.5 11.5t-17.5 4.5q-17 0 -29 -10.5t-29 -16.5h32v-110l-42 -21q3 -1 10.5 -2.5t15.5 -3t15.5 -3 t10.5 -1.5h7h14h13h8q6 -1 8.5 -6.5t3 -12t0 -12.5t-0.5 -8q0 -32 -2 -58.5t-9 -58.5q-1 -3 -4 -14t-7 -23t-7 -22.5t-3 -13.5q0 -2 -0.5 -16t-0.5 -21q0 -4 0.5 -18t0.5 -18q4 -2 15.5 -6t15.5 -5h6h5l10 10t10 11h-35q0 2 -1 6.5t-2.5 9.5t-2.5 9t0 6q4 9 10.5 14t14 9 t15 7.5t12.5 11.5q0 5 0.5 18.5t0.5 18.5q0 18 -3.5 34.5t-8 33t-8 33.5t-3.5 34q0 15 2 21.5t7.5 9t13.5 3t20 3.5q2 0 10.5 4.5t10.5 5.5h10q12 0 20 -2t22 -8q0 -4 0.5 -16t0.5 -16q0 -27 -7 -54.5t-15 -54.5t-15 -54.5t-7 -54.5zM443 667v-21h10zM453 730q-5 1 -5 -6 q0 -6 5 -5q5 2 5 5q0 4 -5 6z" />
<glyph unicode="%" horiz-adv-x="648" d="M204 11h-56q-1 0 -4.5 -8t-5.5 -13q-2 -6 -5.5 -19t-6.5 -26.5t-6 -24.5t-3 -14t-1 -12t-1.5 -19t-1 -19t-0.5 -12h25q1 1 6 10t13 21.5t12 20.5q8 14 10.5 21.5t2.5 24.5q-2 0 -6.5 -1.5t-6.5 -2.5q-2 -2 -5 -11t-5 -10q-2 -2 -9 2t-9 4q0 24 10 33.5t21.5 15t21.5 12.5 t10 27zM254 186q0 -2 -0.5 -5.5t-1.5 -3.5q-1 -1 -5.5 -2.5t-9.5 -3l-10 -3t-6 -1.5q-12 -6 -20 -22t-13.5 -35.5t-8 -38.5t-2.5 -31q34 0 47 15t18 35t9.5 41.5t21.5 35.5q2 1 7 -0.5t10 -4t10 -4.5t7 -2q0 -24 9 -44.5t24.5 -36t37 -24.5t46.5 -9q40 0 67.5 22.5 t43.5 55.5t23 71t7 69v52q-7 8 -17 19t-21 20.5t-23 16.5t-23 7q-20 0 -33 -4.5t-25 -10t-26 -10t-35 -4.5q0 4 -1 12.5t-2.5 18t-2 18t-0.5 11.5q0 2 3.5 11t7 19.5t7 20t3.5 11.5q1 3 -3.5 11t-6.5 10q0 1 -4 1h-6q-9 0 -16 -2t-16 -9q9 -3 10 -8.5t1 -11.5q0 -5 -3 -16 t-7.5 -23t-10.5 -22t-11 -13q-2 -2 -8 2.5t-9 4.5q0 3 -1.5 8.5t-2 10.5t1.5 9.5t9 6.5q-14 -1 -18 5t-4 15t3.5 16t8 14.5t8 15.5t3.5 19q0 4 -0.5 11t-0.5 8q-1 2 -10.5 5t-10.5 5q0 1 -1.5 6.5t-3.5 12t-3.5 13t-1.5 10.5q0 1 -0.5 5t-0.5 6q0 18 10.5 26t22.5 14 t22.5 15t10.5 29q-17 0 -36 -3.5t-29 -18.5q-2 -2 -5.5 -11t-5.5 -10q-1 -1 -7 -0.5t-14 0.5q-7 0 -13 0.5t-7 -0.5q-2 -1 -5 -5.5t-6 -10t-6 -10t-4 -5.5t-5.5 -2.5t-10 -3t-10 -3t-5.5 -2.5q-3 -1 -11 -7t-10 -8h94l4 -10t6 -16l6 -16.5t3 -9.5t1.5 -8.5t0.5 -12.5 q0 -20 -9 -47.5t-23 -41.5q-7 -7 -24 -13t-35 -13t-31.5 -15.5t-13.5 -20.5q0 -7 7 -11t16.5 -6.5t19 -3t14.5 -0.5q14 0 29 2t29 9q2 1 10 10t10 10q2 2 6 -1.5t6 -3.5q0 -5 2 -17.5t4 -26.5t3 -26.5t0 -17.5q-1 -4 -5 -13.5t-9 -19.5t-9.5 -18.5t-7.5 -11.5q8 -2 10 -8.5 t2 -13.5zM366 183q0 16 7 35t19 35.5t28.5 28t34.5 11.5q10 0 20 -4.5t18.5 -11.5t14 -17t5.5 -20q0 -41 -23.5 -68t-65.5 -27q-21 0 -39.5 7t-18.5 31zM273 219h21v-32h-21v32zM64 437q0 -13 4.5 -29t17.5 -23v5v6q-1 4 -3 11t-3.5 14t-3 11.5l-1.5 4.5h-11zM127 562 l-10 -31q1 0 2.5 -0.5t2.5 -0.5q2 0 3.5 0.5l1.5 0.5q3 2 7 5.5t4 4.5q0 3 -4 11t-7 10zM377 552q3 -8 8.5 -9.5t12.5 -1.5t12.5 1.5t8.5 9.5q14 38 22.5 72.5t19.5 72.5q2 9 9 14.5t14.5 10.5t13 9.5t5.5 12.5q0 1 -0.5 3t-0.5 3q-2 5 -5.5 17t-4.5 14h-5h-6 q-20 -5 -39 -7.5t-34.5 -9.5t-26 -19.5t-14.5 -36.5q-1 -3 3 -11t7 -10q-1 14 5.5 18t15.5 4q13 0 22.5 -9t9.5 -22t-2.5 -21.5t-8.5 -21.5q-2 -5 -8 -17l-12.5 -25l-12.5 -25t-9 -16z" />
<glyph unicode="&#x26;" horiz-adv-x="648" d="M82 202q0 -21 3.5 -46t18.5 -42q4 -5 14 -15.5t21.5 -22t22 -21.5t15.5 -14q3 0 12 -0.5t19 -1t19 -0.5h12h16t20 0.5t18 1t9 0.5q2 0 11 5t19.5 10.5t19.5 10.5t12 5q2 1 15.5 1.5t21.5 0.5q18 0 32.5 -5.5t27.5 -12t26 -12t30 -5.5q2 0 7.5 0.5t6.5 1.5l73 73q0 1 1 6 t1 8q0 15 -8 27t-25 12q-10 0 -20 -5.5t-19.5 -11.5t-20 -11.5t-20.5 -5.5q-13 0 -20 6t-10.5 15t-4.5 20t-1 21q0 7 1 22t4 29t9.5 25t17.5 11q9 0 15.5 -4t5.5 -18h62q1 0 5 7.5t6 12.5t5.5 17t4.5 15l0.5 2t0.5 3q0 7 -9 17t-21 19t-24 15.5t-19 6.5q-6 0 -14 -4 t-15.5 -9.5t-14 -11t-9.5 -7.5q-3 -3 -10.5 -10t-16 -15.5t-15.5 -16t-10 -10.5q-2 0 -7.5 -0.5t-7.5 -0.5q-22 0 -41 8t-19 33q0 36 15 58t33.5 43.5t33.5 48t15 71.5q0 25 -9 43t-24.5 29.5t-36 17t-44.5 5.5q-7 0 -19.5 -0.5t-13.5 -1.5q-2 -1 -10.5 -9t-18.5 -18 t-19.5 -20t-13.5 -16q-2 -3 -6.5 -14.5t-4.5 -16.5v-156q0 -1 -4.5 -6t-11.5 -11.5t-14 -13.5l-11 -11q-2 -1 -10.5 -5t-10.5 -5q-6 -4 -18 -11.5t-13 -9.5q-2 -2 -5.5 -10.5t-5.5 -10.5l-10.5 -10.5l-10.5 -10.5q-9 -18 -10 -38t-1 -40zM145 229q0 10 11 27.5t26 34.5 t29.5 30t22.5 13q16 0 24.5 -6.5t13.5 -16.5t8.5 -21t10.5 -20q2 -2 11 -5.5t10 -4.5t4.5 -13t5.5 -19q2 -6 5.5 -15.5t7.5 -20t6.5 -21t2.5 -17.5q0 -9 -7.5 -15t-17.5 -9.5t-20.5 -5t-16.5 -1.5t-18.5 0.5t-13.5 0.5q-2 0 -8 2t-13 4t-13.5 3.5t-7.5 1.5q-8 0 -10.5 -7 t-4 -15t-4.5 -15t-12 -7q-2 0 -5.5 0.5t-5.5 1.5q-4 31 -12.5 67.5t-8.5 68.5zM270 505q0 10 4 25.5t11 29.5t16.5 24t21.5 10q2 0 5.5 -0.5t4.5 -0.5q3 -2 10.5 -6t16 -9t15.5 -9.5t10 -6.5q0 -2 0.5 -8t0.5 -8q0 -12 -7 -29t-17.5 -32.5t-23.5 -27t-25 -11.5 q-26 0 -34.5 18t-8.5 41z" />
<glyph unicode="'" horiz-adv-x="648" d="M294 312q2 -4 9.5 -12t11.5 -9q6 -2 17.5 3t23 13t21 17.5t11.5 18.5q1 6 3 18.5t3.5 25.5t3 24.5t1.5 14.5q0 2 -1.5 10t-3.5 16.5t-4 16.5t-2 10v11q0 6 1.5 9.5t4 6.5t4 7t1.5 11q0 15 -3 37.5t-10 43.5t-19 36t-31 15q-17 0 -27 -8t-15.5 -20.5t-7.5 -27t-2 -27.5 v-42q0 -12 1.5 -43.5t3 -66t3 -66t2.5 -43.5z" />
<glyph unicode="(" horiz-adv-x="648" d="M247 374v-25q0 -15 0.5 -30t0.5 -26v-12q0 -3 3 -17t7 -29.5t7 -29.5t4 -17v-6v-10v-10v-5q4 -14 8.5 -22.5t9.5 -16t11 -15t12 -19.5q3 -5 12 -23t19.5 -39.5t19.5 -40t12 -22.5q5 -8 13 -17t17.5 -17t20.5 -13.5t22 -5.5q2 0 6 0.5l4 0.5q1 0 5 5t5 5q4 1 18 2.5 t17 1.5q0 7 0.5 18t-0.5 22t-4 21.5t-10 18.5q-2 2 -11.5 11t-20 19.5l-19.5 19.5t-11 12q-17 19 -28.5 45.5t-23.5 48.5q-1 2 -6 9.5t-10.5 16t-10 16.5t-4.5 10q0 1 -1.5 13.5t-3.5 29t-3.5 33.5t-2.5 28v5v10v10v6t-1.5 7.5t-3.5 13t-3.5 12.5t-1.5 8q0 8 -0.5 29 t-0.5 44t0.5 44t0.5 29q-2 0 -6 4t-5 6q0 4 -0.5 13t-0.5 18q0 10 0.5 19t0.5 13q-26 -20 -39.5 -47.5t-18.5 -58.5t-5 -63v-61zM373 614q1 2 -4 3t-12 1t-12 -1t-3 -3q3 -5 15 -5t16 5zM361 681q0 -12 6.5 -24t21.5 -12h5q4 3 11 9.5t13.5 13.5t11.5 12t5 7q1 2 2 15.5 t1 20.5q0 5 -1 18.5t-2 18.5q-5 2 -20.5 6t-20.5 4q-7 0 -13 -11t-10.5 -25.5t-7 -29.5t-2.5 -23z" />
<glyph unicode=")" d="M187 -29q0 -31 9.5 -48t44.5 -17q6 0 21.5 15.5t32.5 35.5t31.5 39t18.5 26q0 1 1.5 5.5t3.5 9.5t3.5 10t1.5 6q32 65 47.5 138t15.5 148q0 33 -1.5 69.5t-6.5 72.5t-15.5 70.5t-28.5 63.5l-6 6l-10 10t-10 9.5t-6 6.5q-1 1 -4 7t-6.5 13.5t-6.5 13.5t-4 7q-1 2 -10 5.5 t-10 5.5q-14 11 -24.5 20.5t-22 16.5t-25 11t-33.5 4h-10q1 -3 3.5 -9t6 -12.5t6.5 -12.5t5 -8q1 -2 7 -8t13.5 -13t13.5 -13l8 -8q0 -1 1.5 -5.5t3.5 -9.5t3.5 -10t1.5 -6q3 -8 10 -18.5t14.5 -21t15 -19.5t12.5 -14t12.5 -9t14 -8t11 -9.5t4.5 -14.5q0 -11 -5.5 -14.5 t-5.5 -11.5q0 -10 5.5 -17.5t5.5 -18.5q0 -66 -8 -137.5t-34 -134.5q-7 -15 -16 -30.5t-15 -31.5q-2 -4 -5.5 -12t-5.5 -9q-15 -18 -28.5 -32t-23.5 -28t-16 -31.5t-6 -42.5z" />
<glyph unicode="*" horiz-adv-x="648" d="M267 375q16 0 21.5 -7t6.5 -16.5t0 -20.5t2 -19q1 -2 5.5 -6.5t10 -9.5t10.5 -9.5t6 -5.5q1 -2 4.5 -10.5t5.5 -10.5l2 -0.5t3 -0.5t3 0.5l2 0.5q14 14 17.5 30.5t7.5 31t12 24t31 9.5q17 0 27.5 -6t24.5 -6q17 0 27.5 10t10.5 26q0 12 -5 23t-11.5 23t-11.5 26.5 t-5 34.5v13q2 3 10 7.5t11 3.5q0 3 0.5 13t0.5 13v16q0 9 -2.5 16t-8 11.5t-15.5 4.5q-9 0 -14.5 -2t-10.5 -4.5t-11 -4.5t-17 -2q-3 0 -13 0.5t-13 0.5q-3 8 -9.5 20.5t-15.5 24.5t-18.5 20.5t-18.5 8.5h-6q-3 0 -5 -1q0 -4 -3.5 -12t-8.5 -16t-10.5 -15t-8.5 -9 q-2 -2 -13 -3t-23.5 -2.5t-23 -2.5t-13.5 -2q-1 -1 -5 -5.5t-5 -5.5q-10 -5 -18 -7t-13.5 -4.5t-8.5 -8t-3 -17.5q0 -3 0.5 -8.5t0.5 -6.5q1 -2 10 -10.5t11 -10.5q10 -16 15.5 -41t5.5 -43q0 -5 -1.5 -8.5t-4 -6.5t-4 -6t-1.5 -9q0 -10 1.5 -16.5t9.5 -14.5q14 8 30 14.5 t33 6.5z" />
<glyph unicode="+" d="M294 156v-37t2.5 -38t8.5 -37t17 -34q2 0 12.5 -0.5t13.5 -0.5q25 0 37 14t16 35t3.5 44.5t0.5 42.5q15 -2 39.5 -1t48 7t41 18t17.5 34q0 17 -12.5 29.5t-29.5 16.5q-6 1 -20.5 3t-31 4t-31.5 3t-21 1q-4 17 -5.5 42t-6 48.5t-15 40t-31.5 16.5q-13 0 -22 -11t-14 -22 q-2 -3 -2.5 -9l-0.5 -6h42l2.5 -10t0.5 -16q-3 -14 -6 -18t-14 -4q-7 0 -13 1.5t-9 9.5q-2 0 -6 -4t-4 -6q-1 -3 -1.5 -10.5t-0.5 -15.5t0.5 -15.5t1.5 -10.5q-5 -2 -16.5 -5t-25 -6.5t-25.5 -6t-17 -3.5q-11 -2 -22.5 -1t-20.5 -0.5t-15 -7.5t-6 -22q0 -20 11 -33.5 t33 -13.5v36h47q0 -2 3 -10t2 -10q-2 -4 -10 -11.5t-11 -9.5h66zM322 83h20v-21h-20v21zM478 197h21v-20h-21v20z" />
<glyph unicode="," d="M297 -31q-5 2 -5 -5t5 -5t5 6q0 3 -5 4zM275 114q0 -4 0.5 -11.5t0.5 -8.5l5.5 -11t10 -19.5t10 -19.5t5.5 -12v-8t-0.5 -13t-0.5 -13q0 -7 1 -8t5.5 -2.5t10 -3t10.5 -2.5t6 -2q2 -2 6 -10t4 -11q4 13 11.5 25.5t14 25t11.5 25.5t5 27q0 19 -1 31t-4.5 21.5t-10 19 t-16.5 23.5q-1 2 -4.5 10.5t-5.5 10.5l-2 0.5t-4 0.5q-7 0 -8.5 -5.5t-2.5 -11.5t-3 -11.5t-11 -5.5q-8 0 -10.5 3.5t-4.5 8t-4 8.5t-8 4q-7 0 -10 -7t-4.5 -16t-1.5 -19v-13z" />
<glyph unicode="-" d="M231 265q10 0 35.5 -0.5t54 -1.5t54 -1.5t35.5 -1.5q2 0 8 -1.5t13 -3.5t13 -3.5t8 -1.5q11 0 27.5 2t31.5 8t25.5 15.5t10.5 24.5q0 14 -3.5 22t-10 13.5t-16.5 9.5t-23 9h-21t-31.5 0.5t-31.5 0.5h-21h-27t-33.5 -0.5t-29.5 -0.5h-14q-3 0 -13.5 -1.5t-22.5 -3.5 t-23 -3.5t-14 -1.5h-8h-13h-13h-7q-16 -5 -19 -14.5t-3 -21.5q0 -17 8 -24.5t14 -23.5q3 0 11 4.5t10 6.5t5 15.5t5 15.5q2 1 7.5 -0.5t11.5 -3.5t11.5 -4.5t7.5 -2.5q0 -7 -1.5 -10.5t-3 -5.5l-3 -4t-1.5 -6zM473 302h21v-21h-21v21z" />
<glyph unicode="." d="M217 98q0 -10 6.5 -18t15.5 -14.5t17.5 -12.5t12.5 -12h83q1 0 6.5 7t12 17t13 20.5t10.5 17.5v10q0 22 -10 38.5t-25.5 26.5t-35.5 15t-40 5q-16 0 -28 -11t-20.5 -26.5t-13 -32.5t-4.5 -30z" />
<glyph unicode="/" d="M157 -126q0 -9 2.5 -20t7.5 -20t13.5 -15.5t19.5 -6.5q1 0 5 0.5t5 0.5q1 4 5.5 13t9.5 18.5t9.5 18.5t6.5 12q1 2 5.5 5.5t5.5 5.5q0 2 1.5 10.5t3.5 18.5t3.5 19t1.5 14v6v10v10v6q1 2 10.5 5t10.5 5v8v13v13v8q2 3 9.5 11t11.5 9q-11 2 -11.5 14.5t-0.5 18.5 q0 4 0.5 11.5t0.5 8.5q1 3 7 13.5t13.5 22.5t13.5 22.5t8 13.5q6 12 8.5 30.5t4.5 36.5t5.5 32t12.5 16l42 156q8 3 13.5 18.5t10 34t8.5 36t10 26.5q2 3 6 10.5t4 9.5v10v16v17v10q0 1 5 5t5 5q1 1 4 7.5t6.5 13.5l6.5 13l4 8t5 5.5t6 4.5v73q0 1 -8 4.5t-13 5.5 q-1 0 -3 0.5t-3 0.5t-9 -15t-19 -33.5t-23 -35.5t-21 -21v-94q-14 -4 -23 -18.5t-15 -32t-10 -35.5t-10 -28q0 -1 -5 -5t-5 -5q-1 -4 -3 -13t-3.5 -18.5t-2.5 -18.5t-1 -13q-12 3 -17 -10t-7.5 -32t-3.5 -37t-4 -25q-1 -2 -10 -5.5t-10 -4.5q-8 -6 -11.5 -12.5t-5 -14.5 t-2 -17t-2.5 -19q-1 -4 -3 -11t-3.5 -13.5t-3 -11.5t-1.5 -6q-1 -2 -10 -10t-11 -10q-2 -4 -3 -10l-1 -6h46v-31h-42q0 -4 -1 -14t-2.5 -20.5t-3.5 -20t-3 -13.5q0 -1 -3 -5.5t-7 -10t-7 -10t-4 -5.5q-2 -4 -5.5 -10.5t-6.5 -13t-6 -12t-3 -6.5q-5 -21 -8 -46.5t-3 -48.5z M273 229h20v-20h-20v20z" />
<glyph unicode="0" horiz-adv-x="648" d="M200 63q11 -13 23.5 -26t26.5 -23.5t30 -17t34 -6.5q6 0 21 1t31.5 2.5t31 3.5t20.5 3q2 1 6 5t5 6q0 1 1.5 6l3 10t3 9.5t2.5 5.5t6 2.5l10 3t9.5 3t5.5 1.5l10.5 10.5l10.5 10.5t11 5.5t10 5.5v5v10v10v6t1.5 5t3 9l3 10t2.5 7q1 1 4 7.5t7 13.5t7 13t3 8q1 6 3 21.5 t3.5 34t3 35t1.5 23.5q0 1 -1.5 5.5t-3.5 10t-4 10t-2 5.5q0 3 -1.5 13.5t-3 23t-3 23t-2.5 13.5q-2 8 -6.5 22.5t-9.5 29.5t-9.5 27t-5.5 15q-5 7 -13 16.5t-17.5 18.5t-21 16.5t-21.5 10.5h-5q-17 0 -28.5 -4.5t-11.5 -22.5q0 -3 1 -8.5t2 -6.5t7 -2.5t13.5 -3t13.5 -2.5 t8 -2t5.5 -10t4.5 -11q2 -1 11 -4.5t10 -5.5t2.5 -8t3 -13t3 -13.5t1.5 -7.5q1 -1 5.5 -5t5.5 -5q3 -6 8.5 -16t10 -20t8.5 -18t4 -9t0.5 -8.5t1 -17.5t0.5 -20v-16v-12t-0.5 -19t-1 -19t-0.5 -12q-11 -3 -14 -18t-4 -34t-2.5 -36.5t-10.5 -26.5q-1 -1 -6 -2.5l-10 -3 t-9.5 -2.5t-5.5 -2q-6 -5 -12 -15.5l-12 -21t-12.5 -19t-15.5 -8.5q-11 0 -14 6t-13 6q-8 0 -11.5 -3.5t-7 -7.5t-9 -7.5t-17.5 -3.5q-15 0 -29.5 4t-23.5 18h-73zM168 119q0 -6 6 -9.5t14 -5t15.5 -2t11.5 -0.5q0 9 -5 13.5t-11.5 7.5t-12.5 7.5t-7 15.5q-2 -2 -5.5 -10 t-4.5 -11l-0.5 -2t-0.5 -4zM169 229q0 -3 -1.5 -10.5t-3 -15.5t-3.5 -15.5t-3 -10.5q0 -2 -4 -5.5t-6 -4.5h21v62zM148 312v-72h10l1.5 6t3 14t3.5 17t3 15v5v5q-1 2 -5 5.5t-6 4.5q0 1 -5 1q-4 0 -5 -1zM381 583q-17 0 -37.5 -0.5t-41 -3.5t-39.5 -9t-32 -18 q-6 -6 -16 -15.5t-20 -19.5t-17.5 -18t-8.5 -10t-2.5 -11t-3 -19.5t-3 -20t-2.5 -11.5q0 -2 -5 -5.5t-5 -5.5t-1 -7t-1.5 -11t-1 -11.5t-0.5 -7.5q17 0 32.5 5t23.5 22q1 2 4 11.5t6 20t6 19.5t5 11q1 1 7 4.5t13.5 7t13.5 6t7 3.5l10.5 10.5l10.5 10.5q2 1 11.5 5.5t20 10 t20 9.5t11.5 6q1 2 4.5 10.5t5.5 10.5t10.5 5.5t10.5 4.5q1 2 2.5 6t1.5 5z" />
<glyph unicode="1" horiz-adv-x="648" d="M186 -10l83 -10q5 19 18 20.5t27 1.5q11 0 17.5 -2t11.5 -4t10.5 -4t14.5 -2q12 0 17 5t8.5 11.5t8 11.5t13.5 5q8 0 10.5 -2t2.5 -6t1 -10.5t6 -14.5h5h6q4 1 13.5 4.5t19.5 7t18.5 6t10.5 3.5t6 5t5 6q-2 1 -6 4.5t-5 5.5q0 1 -1.5 6l-3 10t-3 9.5t-2.5 5.5q-2 1 -9 3 t-15 3.5l-16 3t-12 1.5q-15 0 -31 -11t-33 -11t-19 24.5t0 56.5t2 63t-13 44q-2 2 -15.5 5t-15.5 5q0 1 -0.5 4.5t-0.5 5.5q0 10 6.5 19t15 17.5t15 17.5t6.5 20v176l-63 63l-5 0.5t-8 0.5q-11 0 -18.5 -3.5t-15 -8t-15 -8t-16.5 -3.5q-10 0 -16 2.5t-11.5 5t-12.5 5 t-20 2.5q0 -6 7 -15.5t16.5 -18.5t18.5 -15.5t13 -6.5q2 0 10.5 5t10.5 6h10q12 0 23.5 -6.5t20 -16.5t14 -22t5.5 -22q0 -11 -1.5 -19.5t-9.5 -17.5q5 -99 1 -198.5t-22 -196.5q-1 -1 -5 -1h-5q-8 0 -14 3.5t-11.5 7.5t-10.5 7.5t-11 3.5q-4 0 -5 -1q0 -5 -1 -14 t-4.5 -17.5t-9.5 -15t-16 -5.5zM321 136h21v-21h-21v21z" />
<glyph unicode="2" d="M118 58q0 -2 0.5 -4l0.5 -2q1 -5 5 -13.5t9.5 -17t11 -15t10.5 -6.5h6q2 0 11 2t19.5 3.5t20 3t11.5 1.5q1 1 5 1h6h6t4 -1q1 0 5 -5t5 -5t13 -0.5t18 -0.5q7 0 19 0.5t13 0.5t5 5t5 5q0 1 4 1h6q17 0 30 -6t33 -6q3 0 15 0.5t16 0.5q-1 14 5 18t15 4q12 0 17 -4.5 t10.5 -9.5t14 -9.5t26.5 -4.5q0 3 -0.5 11.5t-1.5 17.5t-2 17.5t-1 11.5q0 2 -4 6t-6 4h-250q-29 0 -41 21.5t-12 45.5q0 34 18.5 53t40 29.5t40 17t18.5 15.5q0 1 -0.5 3t-0.5 3l-10 10t-11 10q0 1 -2 1h-3q-8 0 -14.5 -5t-13.5 -11.5t-14.5 -11.5t-15.5 -5q-10 0 -13.5 6 t-12.5 6h-5q0 -3 -1 -9t-2.5 -12.5t-3.5 -12.5t-3 -8t-10 -5.5t-11 -4.5q-4 -3 -10 -8l-12 -10t-10 -9t-4 -5v-93q-2 -1 -8 -5t-8 -6l-0.5 -1.5t-0.5 -2.5zM462 374q-10 -1 -14.5 -3.5t-6.5 -6.5t-3.5 -9t-6.5 -12q-14 -19 -34 -29t-39 -23q-2 -1 -10.5 -4.5t-10.5 -5.5 t-4 -12.5t-2 -13.5q56 0 93.5 23t68.5 65q8 10 19 19t13 23v7t0.5 14t0.5 16v14v19q0 13 -1 27.5t-3.5 27.5t-7.5 20q-1 2 -7 6.5t-13 10t-13.5 9.5t-7.5 6q-3 2 -11 10l-10 10h-94q-3 0 -13.5 2t-22.5 4t-23 3.5t-14 1.5q-8 0 -29 -10t-43.5 -23.5t-41 -27.5t-21.5 -22 q0 -1 -1.5 -8.5t-3 -17.5t-3 -20.5t-2.5 -16.5v-6v-4q2 -2 10 -6t11 -5q-2 12 4.5 17t15.5 7.5t18 3.5t14 4q2 1 5.5 9.5t4.5 10.5t5.5 6t4.5 5q1 1 4 7.5t6 13.5t6 13t5 7q1 1 9.5 1.5t13.5 0.5t16.5 -0.5t12.5 -1.5q2 0 5.5 -5t5.5 -5t10 5t10 5q1 1 9 1h13h11q8 0 9 -1 q1 0 5 -4.5t5 -5.5t7.5 -2t14 -2.5t13.5 -3t7 -2.5q1 -2 4.5 -9.5t6.5 -16.5t6 -16.5t4 -9.5t4.5 -6t5.5 -5v-73zM181 416q2 5 -5 5t-5 -5t5 -5q4 0 5 5z" />
<glyph unicode="3" d="M369 -41q-31 -8 -60 -21.5t-55 -30.5q-3 -2 -11 -6t-10 -4q-10 -2 -19 -1.5t-18 0.5t-18 -1.5t-18 -8.5q-7 -5 -17.5 -15t-20.5 -20t-17 -18t-7 -9v-21h73l10 16h94q2 10 15.5 18.5t28.5 16t27.5 14t12.5 13.5q0 6 -1.5 7.5l-3 3t-2.5 5.5t-1 14q2 0 8.5 4t9.5 2 q2 -2 6 -9.5t4 -10.5q2 1 6.5 5.5l9.5 9.5t9 9.5t6 6.5l0.5 2t0.5 3q0 6 -1.5 7.5t-3 3.5t-2.5 6t-1 16q9 0 16 3t12 -10q14 11 25.5 28.5t19.5 38t12.5 41t4.5 38.5q0 2 -5 10.5t-5 10.5v13q0 11 0.5 23t0.5 22q0 11 -1 14q0 2 -5 12.5t-12 23.5t-14 26.5t-11 21.5 q-5 8 -12.5 11t-16.5 3q-8 0 -17 -1.5t-16 -2.5q-11 18 -11 41v42v10v16t0.5 15.5t0.5 10.5q17 20 44 25.5t49 5.5q-2 27 -3.5 54.5t-17.5 50.5q-2 2 -5.5 6t-4.5 4h-250q-29 0 -40.5 -10.5t-11.5 -36.5v-16q3 2 15.5 7.5t26.5 11t26.5 10t15.5 4.5q2 0 5.5 -0.5t4.5 -0.5 q1 -1 5.5 -4t9.5 -7t9.5 -7t6.5 -3q3 -1 17 -1t29.5 0.5t29.5 0.5h18q14 -2 18 -6t4 -14q0 -4 -9 -23.5t-20.5 -42t-21.5 -41t-13 -19.5q-1 0 -6 -1.5l-10 -3t-9.5 -3t-5.5 -2.5t-4 -7t-6.5 -13.5t-6.5 -14t-4 -7.5t-5.5 -5t-4.5 -5q-1 -1 -1 -5v-6q0 -12 8.5 -20.5 t12.5 -20.5h73q1 -2 5 -6t6 -5q1 0 7.5 -1.5t13.5 -3t13 -3t7 -2.5q1 -2 4.5 -9.5t6.5 -16.5t6 -16.5t4 -9.5t10 -5.5t11 -4.5q5 -5 13.5 -19.5t8.5 -22.5q0 -11 -8.5 -26t-21 -29t-27.5 -25t-27 -14q-4 -1 -14.5 -2.5t-22 -3t-22 -3t-14.5 -1.5l-11 -21h84q4 13 11 10 t15 -3q0 -1 3 -3t2 -4q-2 -2 -11 -5t-10 -5q-2 -2 -3.5 -8t-3 -12.5t-2.5 -12.5t-1 -9zM264 1l-31 -32h31v32zM431 32h21v-21h-21v21zM545 396v-21h11zM535 427q-2 1 -3.5 -2.5t-1.5 -8.5q0 -4 1.5 -7.5t3.5 -2.5q5 3 5 11t-5 10zM493 708q2 -3 10 -11t11 -10h5q8 0 13 6.5 t5 14.5h-44z" />
<glyph unicode="4" horiz-adv-x="648" d="M385 161q0 -6 1.5 -20t3 -29.5t3 -29.5t2.5 -20q2 -8 5.5 -23.5t4.5 -17.5q4 -5 15.5 -13t16.5 -8q2 0 10 8t11 13v10q0 11 -6 15.5t-6 15.5t6 14.5t6 11.5v6q0 1 -2 7.5t-3.5 13t-3.5 12.5t-2 8q0 1 -0.5 5.5t-0.5 6.5q0 7 4 10.5t9.5 6.5t11 6.5t7.5 11.5h86l-0.5 6 t-1.5 10q-6 19 -20.5 24.5t-31 8t-31.5 7t-21 22.5q-1 3 -3 11.5t-3.5 18.5t-3 19t-1.5 14q0 10 -0.5 37t-0.5 56q0 30 0.5 56.5t0.5 37.5q2 9 -3 14.5t-13 8.5t-16 4t-12 1q0 -8 2 -12.5t5 -8t5 -7.5t2 -11q0 -11 -4 -17.5t-18 -13.5q14 -6 18 -12.5t4 -17.5q0 -7 -2 -11 t-4 -7.5t-4 -7.5t-2 -11t0.5 -15.5t10.5 -10.5v-84q-2 -1 -5.5 -4.5l-5.5 -5.5q-1 -2 -3.5 -8t-6 -13.5t-6.5 -13.5t-4 -7q-1 0 -7 -1.5t-14.5 -3l-17 -3t-13.5 -2.5h-10h-11q-5 0 -17 1.5t-25 3.5t-25 3.5t-16 1.5q-16 7 -19 15.5t-3 20.5q0 7 0.5 16t10.5 11v250l-10 31 q-15 -9 -23.5 -25t-8.5 -33q0 -6 3.5 -8t8 -3.5t8 -4t3.5 -9.5q0 -2 -0.5 -6t-1.5 -5q0 -1 -3.5 -4t-7 -6.5t-7 -6.5t-3.5 -4v-8v-13v-13v-7q0 -2 -5 -5.5t-5 -5.5t5 -10t5 -10q1 -1 1 -5v-6q0 -14 -4.5 -31.5t-10.5 -36.5t-11 -39t-6 -39l-21 -10v-65q11 0 15.5 7t16.5 7 q6 0 12 -1.5t8 -9.5h73q3 8 9 9.5t13 1.5q8 0 13.5 -2.5t6.5 -14.5h94zM114 729q1 -3 4 -9t6 -12.5t6 -12.5t5 -8q1 -1 5.5 -5t4.5 -5q1 -4 3 -14.5t3.5 -22t3 -22t1.5 -14.5h46q0 7 -4 10t-9.5 5t-9.5 4.5t-4 10.5q0 7 2 13t10 9q-7 17 -22.5 43t-29.5 40l-2 0.5t-3 0.5 t-3 -0.5t-3 -0.5q-2 -1 -5.5 -4.5t-4.5 -5.5z" />
<glyph unicode="5" horiz-adv-x="648" d="M175 -151q0 -18 14.5 -22.5t26.5 -4.5q5 0 13 0.5t9 0.5q2 0 5.5 5t5.5 5q18 7 37.5 12t38.5 11.5t37 15.5t32 24q2 1 5.5 10t5.5 11q1 1 10 5t11 5q12 9 19 16.5t12.5 15.5t10 17.5t10.5 23.5q0 1 1.5 5.5t3 10t3 10t2.5 5.5q1 2 10 10.5t11 10.5l0.5 4.5t0.5 6.5 q0 7 -3.5 10.5t-8.5 6.5t-10.5 5.5t-9.5 8.5l-16 -11v-83q-3 0 -9.5 -1t-14 -3t-14 -4t-9.5 -3q-2 -1 -5.5 -9.5t-4.5 -10.5t-5.5 -6t-5.5 -5t-3.5 -6t-6 -10t-6.5 -9.5t-4 -5.5t-6 -0.5t-10 0.5t-10 0.5t-6 -0.5t-4 -5.5t-6 -10t-6.5 -10.5t-4.5 -5q-2 -1 -11 -2.5 t-19.5 -3t-20 -3t-11.5 -2.5t-10.5 -10t-10.5 -10q-3 -2 -12 -3.5t-19 -3.5t-19 -3t-12 -1q0 -1 -0.5 -2.5t-0.5 -2.5zM374 302q-1 -4 3 -11.5t7 -9.5q2 -1 9.5 -2.5t16.5 -3t16.5 -3t9.5 -2.5t5.5 -9.5t4.5 -10.5t5.5 -6t5.5 -5q2 -3 6 -11t4 -10q1 -2 2.5 -11.5t3 -20 t3 -19.5t2.5 -11q1 -4 2.5 -11l3 -14t3 -12l1.5 -5q1 -1 5.5 -2.5t9.5 -3l10 -3t6 -1.5q2 -1 6 -4.5t5 -5.5q0 3 0.5 15t0.5 16q0 1 0.5 8.5t-0.5 15t-4.5 13.5t-12.5 4v94q-15 -1 -23.5 7.5t-15 20.5t-13 24.5t-16.5 20.5q-19 14 -44.5 17.5t-48.5 3.5q-28 0 -50 -2.5 t-54 -8.5q-3 -2 -11 -10t-10 -11q-2 -1 -5.5 -10t-5.5 -10q-2 -2 -8.5 2t-8.5 4q0 9 1 12.5t2.5 6.5l3 6t1.5 10q0 9 -3.5 15.5t-8 12t-8 11.5t-3.5 13q0 15 10 25t12 27v7v14v13v8q1 4 4.5 16t5.5 15q7 0 25 -0.5t38 -0.5t37.5 0.5t24.5 0.5q3 0 15 4.5t17 6.5q1 0 5 5t5 5 l4 0.5t6 0.5q9 0 14 -3.5t9.5 -7.5t11 -7.5t17.5 -3.5q6 0 17.5 4.5t22.5 11t19 14.5t8 16q-2 0 -9 -0.5t-14.5 -1t-14 -1.5t-8.5 -1q-1 -1 -5 -5.5t-5 -5.5q-1 0 -5 -0.5t-6 -0.5q-9 0 -14.5 5t-11 11.5t-11.5 11.5t-15 5q-6 0 -8.5 -5t-5 -11.5t-5.5 -11.5t-11 -5 q-5 0 -17 5t-24.5 11.5t-23.5 11.5t-14 5h-5q-1 -1 -5 -5.5t-6 -5.5q-6 -2 -22.5 -3.5t-33.5 -3.5t-31.5 -5t-16.5 -9q-2 -5 -5.5 -20.5t-4.5 -20.5v-23q0 -16 -0.5 -34.5t-0.5 -35.5v-22v-30t0.5 -37t0.5 -32v-15q0 -2 1.5 -11.5t3.5 -20t3.5 -19.5t1.5 -12q1 -1 1 -5 q0 -3 -1 -5q3 1 9 3.5t12.5 6t12.5 6.5t8 5q2 1 8 7t13 13.5t13 13.5t8 7q1 1 7 4l13 6.5l13 6.5l8 4t6 5t5 6h73z" />
<glyph unicode="6" d="M128 266q0 -24 -1 -52.5t0.5 -57.5t8.5 -55.5t24 -47.5q2 -2 10.5 -5.5t10.5 -5.5q2 -1 9.5 -7t16 -13.5t16.5 -13.5t10 -7t11.5 -2.5t20 -3t20 -3t11.5 -2.5q1 0 5 -5t5 -5t8.5 -0.5t12.5 -0.5q4 0 12 0.5t9 0.5t5 5t5 5q3 2 17 8t30 13t30 13t17 8q22 14 36.5 34.5 t23.5 44.5t14.5 49.5t8.5 48.5q-2 -2 -10 -6t-11 -4q-2 -1 -7 0.5t-7 1.5q0 2 -4.5 9t-2.5 9t11 5.5t10 5.5q1 0 1.5 6t0.5 9q0 23 -9.5 40.5t-23.5 38.5h-5q-6 0 -7.5 -1t-3 -2.5t-5.5 -2.5t-14 -1q0 2 -4.5 8.5t-2.5 8.5t10 6.5t11 3.5q-11 17 -39.5 26t-58 14.5t-53.5 10 t-26 12.5q-1 -4 -9 -11.5t-12 -9.5q-3 -1 -13.5 -2.5t-22.5 -3t-23 -3t-14 -1.5q-1 -1 -5 -5.5t-5 -5.5q-2 -1 -8.5 1.5t-8.5 2.5q0 12 1.5 16.5t3 7t3 5.5t1.5 12q-10 0 -17.5 -5.5t-13.5 -14t-9 -18t-4 -17.5v-18q0 -12 -0.5 -26.5t-0.5 -27.5v-17zM180 199v10t0.5 15.5 t0.5 15.5v11q3 5 13 19t21.5 28.5t22 25.5t15.5 11q11 0 14.5 -6t12.5 -6h3t2 1q2 1 6 4.5t5 5.5h83q1 -9 12 -20t24.5 -22.5t27 -22t19.5 -18.5q1 -5 2.5 -18.5t3 -28.5t3 -28.5t2.5 -18.5v-12v-9q-2 -2 -11 -5t-10 -5l-4 -8t-6.5 -13.5t-6.5 -13.5t-4 -7q-2 -2 -15.5 -5.5 t-15.5 -4.5q-3 -2 -11 -10t-10 -11h-115q-12 0 -16 4t-5.5 10.5t-2.5 14t-7 13.5q-1 1 -7 4t-13.5 6t-14 6t-7.5 4q-2 2 -5.5 14.5t-4.5 17.5v7t-0.5 14.5t-0.5 16.5v14zM426 761q-28 0 -57.5 -10t-56.5 -26.5t-50 -37t-39 -41.5q-1 -1 -2.5 -5.5t-3 -9.5l-3 -10t-2.5 -6 q0 -1 -4.5 -5t-5.5 -5l-21 -42q-1 -1 -5.5 -5t-4.5 -5q-2 -3 -6 -11l-5 -10q0 -2 -1.5 -9.5t-3.5 -16.5t-3.5 -16.5t-1.5 -9.5q-1 -2 -5.5 -5.5t-5.5 -5.5q0 -2 -1 -8.5t-1.5 -14t-1 -14t-0.5 -9.5q13 0 22 13t14 23q1 3 7 17t13 30t13 30t8 17q2 2 11 10t10 10q1 1 2.5 7.5 t3 13.5t3 13t2.5 8q9 16 30.5 28t44 22t40.5 19t20 20h109q0 9 -2 12t-5.5 4.5t-8 2.5t-10.5 7q-5 5 -7.5 10.5t-5.5 10t-8 7.5t-15 3z" />
<glyph unicode="7" horiz-adv-x="648" d="M267 -146q2 -10 11 -10.5t16 -0.5q12 0 17.5 2.5t7.5 19.5q1 5 2.5 22t3 37t3 38.5t1.5 27.5q0 5 0.5 18.5t0.5 28.5t-0.5 28.5t-0.5 18.5q6 1 9 11t4.5 23.5t2.5 27t5 21.5q1 1 5.5 5t5.5 5q9 13 13 29t5.5 32.5t1.5 32.5q0 17 1 32q11 -2 16.5 4.5t7.5 15.5t3 18t4 14 l5.5 5.5t10 9.5t10 9.5t5.5 6.5t4 9.5t6.5 16.5t6.5 16.5t4 9.5l5.5 5.5l10 10t10 9.5t5.5 6q0 1 1.5 8.5t3 17.5t3.5 20.5t3 16.5v6q0 8 -13 12.5t-19 12.5h-302l-52 -52q28 -8 53.5 -13.5t50.5 -17.5l2 -0.5t3 -0.5q10 0 17.5 7t14 15t12.5 15t14 7q2 0 6 -0.5t4 -1.5 q2 -1 5.5 -10t5.5 -10q9 -6 18 -6.5t16 -2t11.5 -6t6.5 -17.5q0 -4 0.5 -14.5t0.5 -22.5q0 -11 -0.5 -21.5t-0.5 -14.5q10 14 14.5 36.5t6.5 36.5v-83q-9 -6 -15 -17t-10.5 -23.5t-8.5 -24t-8 -18.5q-5 -9 -10 -13t-9 -7t-7.5 -7.5t-4.5 -14.5v-8v-13v-14v-7q-1 -3 -3.5 -9 t-6 -12.5t-7 -12.5t-4.5 -8q8 -2 9.5 -8t1.5 -12q0 -14 -9.5 -25t-12.5 -27q-5 -27 -7.5 -46.5t-3 -37.5t-0.5 -37v-46v-17t0.5 -25t0.5 -25v-17zM428 688v-83h16q4 19 13 32.5t18 24t16 20t7 21.5q0 3 -0.5 9.5t-1.5 6.5q-2 5 -10 13t-11 8h-125v-21q3 0 9 -1.5t12.5 -3 t12.5 -3t8 -2.5q1 -1 5 -5.5t5 -4.5q3 -2 13 -6t13 -5zM215 740l-11 -21h63v21h-52z" />
<glyph unicode="8" d="M243 22q0 -17 11 -29.5t29 -12.5q6 0 13.5 4t14 10t11 13.5t4.5 14.5h-83zM340 32q9 -14 24.5 -22.5t32.5 -8.5h5q1 0 9 2.5t17 5.5t17 6.5t10 6.5q0 1 1.5 5.5t3 9.5l3 10t2.5 6q1 2 10 5.5t11 4.5q1 2 2.5 7.5t1.5 7.5q-14 0 -34.5 -4.5t-42 -11.5t-41.5 -15t-32 -15z M132 105q1 -12 5.5 -26.5t12 -27t18.5 -21.5t26 -9h12q8 0 15 1.5t12 5t5 9.5q0 1 -1 3l-1 2q-3 0 -11 3l-16 6t-15 6.5t-10 5.5q-2 1 -6 7.5t-9.5 13.5t-10 13.5t-5.5 7.5q-1 0 -5 1t-6 1q-1 0 -5 -1t-5 -1zM111 126l10 -11v11h-10zM496 157q-8 -9 -9.5 -15t-1.5 -16 q0 -2 0.5 -5.5t0.5 -5.5q2 4 5.5 16t4.5 16v5v5zM132 157v-10h21v10h-21zM216 292q0 -7 -11.5 -18t-26.5 -23.5t-28.5 -26t-17.5 -25.5h52q1 10 3.5 14.5t6.5 6.5t9 3.5t12 6.5q17 13 26 21.5t17.5 13t20.5 6t35 1.5h18t18 -1q6 -11 19.5 -17.5t29 -11.5t31 -10.5 t25.5 -12.5q1 -1 4.5 -10t5.5 -10q2 -2 11.5 -4.5t11.5 -2.5q0 6 -4 16t-9 21t-10.5 20t-9.5 12q-12 9 -30 16.5t-34.5 16t-28.5 20.5t-12 30v11q10 7 22 17t21.5 22t15 25.5t4.5 28.5h62q2 0 5.5 12t5.5 20q1 6 2.5 20.5t3 31t3 31.5t1.5 21q11 5 12 13t1 19 q-20 0 -28 -8.5t-12.5 -19t-10.5 -19t-23 -8.5q-16 0 -21 3.5t-6 8t-2 8.5t-9 4q-6 0 -8 -4t-3.5 -8.5t-4.5 -8t-10 -3.5q-9 0 -15.5 4.5t-5.5 18.5h-72q1 -14 -5.5 -18t-14.5 -4q-11 0 -14.5 6t-12.5 6q-2 0 -7.5 -3t-12 -7t-11.5 -7.5t-6 -3.5q-3 -2 -7.5 -7t-9.5 -10 t-9 -9.5t-5 -5.5t-2.5 -7t-3 -13t-3 -13.5t-1.5 -7.5q-1 -2 -5.5 -5.5t-5.5 -5.5l-0.5 -6t-0.5 -10q0 -17 4.5 -28.5t17.5 -28.5q1 0 2.5 -0.5t2.5 -0.5q2 0 3.5 0.5l1.5 0.5q2 3 6 15t5 17q0 1 -0.5 7.5t-0.5 12.5v13t1 8q0 1 4 5t9 9.5t10 10t8 7.5q6 5 19 13.5t27 17 t27 15t20 6.5h11q2 -1 10.5 -5.5t10.5 -5.5q5 -1 18.5 -2.5t28.5 -3t28.5 -3t18.5 -1.5q1 -3 2.5 -13t1.5 -13q0 -5 -1.5 -15t-2.5 -11q-1 -2 -7 -3t-13.5 -2.5t-14 -3t-7.5 -2.5q-6 -4 -12 -14t-11.5 -22t-10.5 -22.5t-8 -14.5q-1 -1 -10 -4.5t-10 -5.5q-9 -9 -13 -16.5 t-8.5 -13.5t-12 -9.5t-22.5 -3.5q-12 0 -21.5 3.5t-18.5 8t-19 8t-22 3.5q0 -11 3.5 -21.5t8 -20t8 -17.5t3.5 -15z" />
<glyph unicode="9" d="M153 -140q0 -14 11 -15.5t20 -1.5q4 0 12 0.5t9 0.5q2 0 10.5 5t10.5 5q5 1 18.5 4.5t28.5 7t28.5 6t18.5 3.5q2 1 5.5 5t4.5 6q1 1 2.5 6l3 10t3 9.5t2.5 5.5t7 2t13 2.5t13 3t8 2.5t12 17.5t21.5 36t20.5 36.5t9 20v5q-2 1 -14 4.5t-18 5.5l-2 0.5t-4 0.5 q-1 0 -2.5 -0.5l-1.5 -0.5q-2 -2 -5.5 -10.5t-4.5 -10.5q-4 -6 -12 -17.5t-9 -13.5q-2 -2 -10.5 -5.5t-10.5 -4.5l-0.5 -2t-0.5 -3q0 -9 6 -12.5t6 -14.5v-4q0 -4 -1 -6q-2 0 -8 -1t-13 -2.5t-12.5 -3.5t-7.5 -3q-2 -2 -5.5 -11t-5.5 -10q-1 -2 -10 -5.5t-11 -5.5 q-1 -1 -5 -4.5t-5 -5.5l-114 -21q-2 0 -5.5 -4t-5.5 -6v-5zM445 135q-14 -9 -19 -25t-5 -31q2 0 7 1.5t6 2.5q2 2 5.5 11t5.5 10q1 2 10 5.5t10 5.5q8 10 8 24v27q0 14 4 25.5t20 16.5v68q0 37 -0.5 65.5t-10.5 64.5q-2 6 -5 14.5t-6.5 17t-6 14.5t-3.5 6h-33q0 -15 13 -21 v-83q-17 -11 -23 -34t-9 -39q-5 -1 -18.5 -4t-28 -6t-28 -6.5t-18.5 -4.5q-1 0 -5.5 -2t-10 -3.5t-10.5 -3t-6 -1.5l-6.5 -0.5t-9.5 -0.5t-8.5 0.5t-6.5 0.5t-5 5t-5 5q-2 1 -8 2.5t-13 3t-13.5 3t-7.5 2.5q-2 1 -5.5 10t-4.5 10q-2 2 -11 5.5t-10 5.5q-1 1 -2.5 7 t-3.5 13.5t-6 13.5t-9 7q-2 1 -7 1.5t-10.5 1l-11 1t-6.5 0.5q0 -9 4 -12.5t9 -5.5t9 -5t4 -11q0 -7 -1.5 -13t-10.5 -9q9 -21 24 -36t33 -25.5t38.5 -18t40.5 -13.5h4h6q2 0 11.5 2t20 3.5t19.5 3t12 1.5h7h13h13h8q2 1 10.5 10.5t10.5 10.5l4 0.5t6 0.5q3 0 8 -0.5 t10.5 -1.5t9.5 -3.5t4 -5.5v-84zM310 594q-199 0 -199 -201q17 0 28 4.5t25 18.5v5q0 9 -6 13t-6 15q0 2 0.5 5.5l0.5 3.5q1 1 7.5 4t13.5 6t13.5 6t7.5 5q3 3 3 15t-3 16q14 2 29.5 7.5t30.5 11t29.5 9.5t25.5 4q4 0 11.5 -0.5t8.5 -0.5q4 -1 13 -5t19 -9t19 -10t12 -7 q0 2 1.5 8t3.5 12.5t3.5 12.5t1.5 9v5v5q-22 13 -44.5 22.5t-48.5 9.5zM434 531v-31h31z" />
<glyph unicode=":" d="M264 141v-6q1 -5 2.5 -14t3 -17t3 -14.5l1.5 -6.5q1 -2 10.5 -5.5t10.5 -5.5q2 -1 5.5 -10.5t5.5 -10.5l6.5 -1.5t14.5 -3t17 -3t14 -2.5h6q8 0 14.5 9.5t11.5 22.5t7.5 26t2.5 20q0 13 -2.5 27t-8.5 25.5t-16 19t-24 7.5q-18 0 -31 -1.5t-22.5 -7t-17 -16t-14.5 -28.5 v-4zM264 411v-5q2 -5 5 -13.5t6.5 -17t6 -14.5t3.5 -7q1 -2 7 -5t13.5 -6.5t13.5 -6t8 -3.5t5.5 -4.5t4.5 -5.5q2 16 11 22t18.5 11t17 15.5t7.5 35.5q0 20 -5.5 32t-15.5 19t-24 11.5t-30 9.5q-2 1 -10.5 5.5t-10.5 4.5t-5.5 -4t-4.5 -6t-4 -10.5t-6 -18.5t-6.5 -19.5 t-4.5 -14.5v-5z" />
<glyph unicode=";" horiz-adv-x="648" d="M297 -20q1 -7 7.5 -9.5t14.5 -3t14.5 0t7.5 0.5q20 0 31.5 5.5t18 15.5t10.5 23.5t10 29.5q0 1 3 7.5t7 13.5t7 13l4 8v4q0 24 -3 44.5t-12 35.5t-25.5 23.5t-42.5 8.5q-4 0 -16 -1t-15 -1q-2 -12 -8.5 -17.5t-14 -10t-13.5 -10.5t-6 -19q0 -15 6.5 -25.5t14.5 -20 t14.5 -19.5t6.5 -23v-11l-4 -12t-6 -19t-6.5 -19t-4.5 -12zM275 404q0 -10 7 -17.5t17 -14t21 -11t18 -8.5h5h6q1 1 5 5.5t5 5.5t7.5 3.5t14 6t13.5 6.5t7 5l1 11.5t1 17.5q0 12 -2 23.5t-7.5 20.5t-14.5 15t-23 6q-38 0 -59.5 -17t-21.5 -58z" />
<glyph unicode="&#x3c;" d="M228 198q6 -7 22 -23.5t34.5 -35t35 -34.5t23.5 -22q1 -1 7 -4t13.5 -6.5t13.5 -6.5l8 -4q1 -1 4.5 -10t5.5 -11q1 0 6 -1.5t11.5 -3t13.5 -3t11 -2.5l4.5 -0.5t6.5 -0.5q6 0 13 4t13.5 10.5t10.5 14t4 14.5q0 1 -5 5t-6 5q-14 19 -22.5 27.5t-16 13.5t-17 11t-27.5 21 l-31 31q-9 7 -28.5 16.5t-39 20.5t-34 23t-14.5 24q0 18 15.5 35t39 34t50.5 34t50.5 34.5t39 36.5t15.5 39q0 18 -7 22t-24 4q-15 0 -34.5 -7t-39 -17.5t-36.5 -23.5t-26 -25q-2 -2 -5.5 -10.5t-5.5 -10.5l-9.5 -9.5t-16.5 -16t-16.5 -16.5t-9.5 -10q-1 -2 -3.5 -8t-6 -13 t-6.5 -13.5t-4 -7.5q-9 -10 -16.5 -15t-13.5 -9.5t-9.5 -12t-3.5 -22.5q0 -2 0.5 -7.5l0.5 -5.5q1 -2 5.5 -5t10 -6.5t10 -6t5.5 -3.5q2 -2 5.5 -10.5t5.5 -10.5t10 -6t10 -4z" />
<glyph unicode="=" horiz-adv-x="648" d="M171 106q9 -1 31 -2.5t47 -3t47 -3t31 -1.5h10t20.5 -0.5t22.5 -0.5h18h16q11 0 21.5 0.5t17.5 0.5h9q8 0 22.5 3t28.5 8.5t24 13.5t10 20q0 17 -6.5 31.5t-26.5 17.5h-27t-40.5 0.5t-41.5 0.5h-26q-29 0 -55 0.5t-51 -0.5t-50 -3.5t-52 -8.5q-5 -1 -12.5 -4.5t-8.5 -5.5 q-1 -1 -1.5 -8.5t-0.5 -12.5q0 -13 3 -24.5t20 -17.5zM192 148h31v-31h-31v31zM171 283q9 -1 33 -2.5t50 -3t50 -3t33 -1.5h9q9 0 19.5 -0.5t20.5 -0.5h17q13 0 37.5 0.5t48 5t41 15t17.5 30.5t-6.5 28.5t-26.5 15.5q-8 1 -27 3t-40.5 3.5t-41 2.5t-26.5 1q-5 0 -25.5 -1 t-45.5 -2.5t-49 -3.5l-36 -3q-5 0 -14 -1.5t-19 -3.5t-18.5 -3.5t-11.5 -2.5q-2 -1 -6 -4.5t-4 -5.5q0 -1 -0.5 -9.5t-0.5 -12.5q0 -14 2.5 -24.5t19.5 -16.5zM188 325h35v-35q-35 0 -35 35zM462 325h32v-21h-32v21z" />
<glyph unicode="&#x3e;" horiz-adv-x="646" d="M162 67q0 -1 0.5 -3l0.5 -2q1 -2 5.5 -6.5l9.5 -9.5l9.5 -9.5t6.5 -5.5h5q14 0 34.5 9t41 21.5t38.5 27t27 25.5q1 2 5 10.5t5 10.5q3 4 12 13l19 19l19 19t13 12q8 7 20.5 14t24 15.5t20 18.5t8.5 24q0 2 -4.5 10t-6.5 11l-8 8l-13 13l-13 13t-7 8q-1 1 -4 7t-6.5 13.5 t-6.5 13.5t-4 7q-3 4 -14.5 15.5t-24.5 25t-25.5 25.5t-18.5 18q-2 1 -11 5t-10 5q-2 1 -6.5 6t-9.5 10t-10 9.5t-6 5.5q-11 7 -27.5 9t-30.5 2q-12 0 -24 -5.5t-12 -20.5q0 -20 15.5 -38t39 -35.5t50.5 -34.5t50.5 -34.5t39 -35t15.5 -36.5q0 -12 -4.5 -17t-17.5 -14 q-3 -2 -15 -9.5t-26.5 -16t-26.5 -16.5l-15 -10t-12 -9.5t-19.5 -16.5t-19.5 -16.5t-12 -9.5q-1 -1 -5.5 -2.5t-9.5 -3t-10 -2.5t-6 -2t-5 -7.5t-9 -15l-10 -17t-7 -12.5q0 -1 -0.5 -3t-0.5 -3z" />
<glyph unicode="?" horiz-adv-x="553" d="M254 130q0 -9 1.5 -20.5t5.5 -22.5t11 -18.5t18 -7.5q7 0 16 0.5t11 10.5q1 4 3 14.5t3.5 22t2.5 22t1 14.5q-18 5 -20 18.5t-2 27.5q0 2 -0.5 8t0.5 12t3.5 11.5t8.5 6.5q0 7 1.5 25t3 37.5t3 37.5t2.5 25q4 24 20.5 40t35.5 32.5t34 36.5t15 52q0 14 -1.5 35t-9.5 33 q-1 2 -7.5 9t-15 15l-17 16t-12.5 12q-2 2 -10 6t-11 5h-11t-17.5 0.5t-17.5 0.5h-11h-31q-12 0 -23 -2t-21.5 -6.5t-23.5 -13.5q-2 -2 -10.5 -5.5t-10.5 -5.5v-97q14 0 20.5 4t10 10.5t8 14.5t13.5 16q2 2 9.5 7t15.5 10t16 9t11 6h10h11q2 -1 10.5 -5.5t10.5 -5.5 q1 0 7.5 -1.5t13.5 -3t13 -3t8 -2.5q3 -3 6.5 -17t5.5 -31t3.5 -32t1.5 -21q-12 0 -16 1t-6 2.5t-3.5 2.5t-7.5 1q-28 0 -41 -12.5t-18.5 -31.5t-6 -40.5t-2.5 -40.5q0 -2 -1.5 -8t-3.5 -13t-3.5 -13.5t-1.5 -7.5t-0.5 -11t-0.5 -15q0 -23 6 -44.5t6 -44.5q0 -10 -3.5 -18.5 t-7.5 -16t-7.5 -15.5t-3.5 -17zM286 135h20v-21h-20v21z" />
<glyph unicode="A" d="M62 11l31 -21q1 0 7 -0.5t14 -0.5q9 0 17 -0.5t13 -0.5q7 0 18.5 0.5t23.5 0.5t21 0.5t11 0.5q5 0 13.5 1.5t16.5 3t14.5 3t7.5 2.5t3 7t3.5 13.5t2.5 13.5t2 8q0 1 5 5t5 5q2 4 2.5 10l0.5 6h-72l-3 10t-1 16q1 2 5.5 5.5t5.5 5.5q2 2 5.5 10t4.5 10q6 1 21 2.5t31.5 3 t31 3t20.5 2.5q2 0 9 -0.5t9 -0.5q0 -3 0.5 -12t1.5 -18.5t1 -18.5v-13q-2 -15 -5 -22t-8 -12t-12.5 -10.5t-16.5 -17.5v-5v-6q13 -4 24 -6.5t21 -3.5t20 -1h23q44 0 86.5 7.5t86.5 3.5q0 5 3.5 14t7.5 18t7 16.5t3 9.5v5q-1 1 -6 2.5l-10 3l-10 3t-6 1.5q-6 3 -16.5 8 t-20.5 10t-17.5 9t-7.5 5q-2 1 -5 10.5t-6.5 20t-6 20t-3.5 11.5t-3.5 8t-6 12.5t-7 12.5t-4.5 9q0 1 -5 5t-5 5q-1 2 -2.5 9.5t-3 16.5t-3 16.5t-2.5 9.5q0 2 -4 10t-6 11q-1 1 -5.5 5t-4.5 5q-1 3 -2 10.5t-1.5 16t-1 15.5t-0.5 10h-16q-1 -3 -4 -10.5t-6 -15.5 t-6.5 -15.5t-4.5 -10.5q-1 -1 -5.5 -5t-4.5 -5q-2 -11 -1.5 -20t1 -17.5t-1.5 -17t-9 -18.5q-1 -2 -10 -5.5t-11 -4.5q-7 -7 -8 -11.5t-1.5 -7t-2 -3.5t-9.5 -1q-2 0 -5.5 0.5t-4.5 1.5q-2 1 -5 10.5t-5 10.5q-3 1 -9.5 3t-14 3.5t-14 2.5t-9.5 1v111q-19 0 -30.5 -13 t-18.5 -30.5t-11 -36.5t-8 -31q0 -1 -5 -5t-5 -5q-1 -3 -2.5 -13.5t-3 -23t-3 -23t-2.5 -13.5q-5 -16 -13.5 -25t-19 -15.5t-21.5 -13.5t-19 -19l-4 -8t-6 -13t-6 -13.5t-4 -7.5l-5.5 -5.5t-5.5 -4.5zM41 32l-10 -11h10v11zM395 125h21v-52h-21v52zM268 560q0 -5 2.5 -12 t6 -14.5t7.5 -14t7 -8.5q1 -1 6 -2.5l10 -3t9.5 -3t5.5 -2.5q1 0 5 -12t6 -19q0 -2 1.5 -8t3 -13t3 -13.5t2.5 -7.5q2 -2 11 -5t10 -5q1 -3 3 -10.5t4 -15.5t3 -15.5t1 -10.5q0 -1 2 -1.5t3 -0.5t3 0.5t2 1.5t1.5 5t3.5 9t3.5 9.5t1.5 7.5l0.5 2t0.5 3t-0.5 3l-0.5 2 q-1 5 -4.5 17.5t-5.5 14.5q-1 1 -5.5 5t-4.5 5q-1 1 -2.5 7.5t-3 13.5t-3 13t-2.5 8t-10 5t-11 5q-1 2 -4.5 10.5t-5.5 10.5t-10.5 5.5t-10.5 4.5q-2 2 -5 11t-5 10q-4 2 -17 5t-17 3zM239 406v-10h11v10h-11zM270 500q-2 0 -6 -4t-4 -6q0 -3 -1 -10.5t-1.5 -16t-1 -15.5 t-0.5 -10h14v62z" />
<glyph unicode="B" d="M208 -125q6 -1 20.5 -2.5t31 -3t31.5 -3t21 -1.5q2 0 17.5 -0.5t23.5 -0.5h52q27 0 52.5 4t49 12.5t44.5 26.5q14 12 23.5 18.5t9.5 22.5q0 2 -0.5 5.5t-1.5 5.5q-7 -3 -18.5 -11.5t-23.5 -17.5t-23.5 -16t-17.5 -7h-143l-24 83q23 1 48.5 3.5t49.5 10.5t45 22t34 37 q1 1 2.5 7t3 13.5t3 13.5t2.5 7q2 2 7.5 4.5t12 4t12.5 2.5t9 0l-10 104l-21 -31q-3 18 -10 33.5t-14 30.5t-12.5 31t-5.5 35q0 11 0.5 20.5t4.5 17t11.5 11.5t21.5 4q0 9 -9 17t-18 8q5 38 -4.5 61.5t-26.5 52.5q-1 1 -4 7.5t-6 14t-6.5 13.5t-4.5 7q-2 1 -9.5 2.5t-16.5 3 t-16.5 3t-9.5 1.5q-4 1 -11 2.5t-13.5 3t-11.5 3t-6 1.5q-1 1 -5 5.5t-5 5.5h-5h-6q-1 -1 -5 -5.5t-5 -5.5q-3 -1 -12 -2.5t-19 -3t-19 -3t-12 -1.5h-22h-36h-36h-21q-6 0 -14.5 -1.5l-17 -3t-14.5 -3t-6 -2.5v-37h94q1 0 2.5 -6.5t3 -15.5t3 -19t1.5 -16q0 -2 0.5 -16.5 t0.5 -34.5v-39v-32v-66t-0.5 -61t-3 -61t-7.5 -65q-16 -13 -31.5 -15t-31 -3t-31 -7t-31.5 -27l-0.5 -2t-0.5 -3q0 -6 4.5 -9t10.5 -6t11 -7.5t6 -13.5q52 2 104.5 -1t103.5 -10v-62q0 -2 -8 -5.5t-13 -4.5q-4 -1 -14 -3t-21.5 -3.5t-22 -3t-14.5 -1.5v-21zM582 73v-10 q0 -4 1.5 -14.5t3.5 -22t3.5 -22t2.5 -14.5q0 4 0.5 18t0.5 18q0 13 -0.5 29.5t-11.5 27.5v-10zM249 156v104h156q2 -3 10 -10.5t11 -9.5q1 -1 6 -2.5t10.5 -3t10 -3t4.5 -2.5q2 -3 4 -10t3.5 -15.5t2.5 -16t1 -10.5h-125q-1 3 -5 11t-6 10q-1 1 -4.5 -1.5t-5.5 -2.5v-53 h146q-3 -8 -10 -15t-15 -13t-15.5 -11t-11.5 -8q-10 -8 -17.5 -12.5t-15 -6.5t-16.5 -2.5t-24 -0.5q-2 0 -11 -0.5t-19 0t-19.5 3t-13.5 8.5q-1 2 -4 11.5t-6.5 20t-6 20t-3.5 11.5t-5 5.5t-6 4.5zM248 385q0 7 2 11.5t4.5 8t4.5 8.5t2 14t-2 14t-4.5 8.5t-4.5 8t-2 11.5 q0 9 4.5 12.5t10 6.5t10.5 7t7 15q5 0 18.5 1t18.5 1q13 0 34.5 -5t43 -13.5t39.5 -20.5t23 -25q3 -7 5 -18.5t3 -19.5t1 -9h-81l41 -16l0.5 -1.5t0.5 -2.5q0 -15 -7.5 -23t-19 -11t-24.5 -3.5t-24 -0.5q-3 0 -7.5 -0.5t-9 0.5t-8.5 3.5t-5 7.5q3 0 11 4t10 6q2 3 -2 4.5 t-4 3.5q-2 0 -5.5 2.5t-7.5 5.5t-7.5 5t-4.5 0q-1 -1 -2.5 -7t-3 -13.5t-3 -13.5t-2.5 -7q0 -1 -5.5 -2t-8.5 -1q-7 0 -14 4.5t-12.5 11t-9 14t-3.5 14.5z" />
<glyph unicode="C" horiz-adv-x="650" d="M144 178q12 3 16.5 -5t6 -20.5t2.5 -26t7 -21.5q0 -2 4.5 -6t5.5 -5q1 -2 4 -9.5t6.5 -16.5t6.5 -16.5t4 -9.5q7 -12 13.5 -17.5t11.5 -9t9.5 -8.5t7.5 -17h145q4 2 16 10.5t16 10.5q2 1 10.5 4.5t10.5 5.5q1 1 5 9l9 18t9.5 20t7.5 16q4 9 6.5 22.5t14.5 18.5v105 q0 2 -12 6t-20 4t-14.5 -20.5t-16 -47.5t-24 -52.5t-38.5 -35.5q-1 -1 -13 -1.5t-19 -0.5q-5 0 -18 1.5t-28 3.5t-28.5 4t-18.5 3t-11 12.5t-12 26t-11 27.5t-8 18q-2 2 -11 10t-10 10v7v14v13v8q0 3 -1.5 11l-3 16t-3 15.5t-2.5 9.5q-1 1 -5.5 5t-5.5 6l-0.5 4t-0.5 6 t0.5 6l0.5 4q1 2 5.5 5.5t5.5 5.5q14 34 24 72t17 74h11q10 0 13.5 -6t12.5 -6q1 0 3 0.5l2 0.5q2 2 6 10t4 11q5 0 18.5 0.5t18.5 0.5q36 0 70.5 -13.5t49.5 -49.5q0 -2 1.5 -8t3 -13.5t3 -13.5t2.5 -7q1 -2 6.5 -5.5t12.5 -7.5t13.5 -6.5t9.5 -2.5q1 0 5 0.5t5 0.5 q1 3 3 10.5t3.5 15.5t3 15.5t1.5 10.5q0 2 -5 10.5t-6 10.5q-2 6 -5 22.5t-6 34.5t-6 34.5t-4 23.5q-5 0 -18.5 1.5t-28 3t-28 3t-18.5 2.5q-4 0 -12 1.5t-16.5 3.5t-15.5 3.5t-8 1.5q-2 1 -5.5 6t-5.5 5t-10.5 -5t-10.5 -6q-2 0 -8 0.5t-13 0.5h-13t-7 -1q-2 0 -10 -8 t-11 -12q-2 -2 -5.5 -11t-5.5 -10q-1 -2 -10 -5.5t-10 -5.5q-17 -21 -29.5 -49.5t-20 -59.5t-11 -62t-3.5 -57q0 -17 0.5 -30t1.5 -25.5t3.5 -26.5t5.5 -33z" />
<glyph unicode="D" horiz-adv-x="650" d="M82 11l21 -11l16.5 -1t40 -2.5t48 -3.5t41.5 -3h5h5q16 1 35 0.5t38.5 0.5t38 5t34.5 15q1 1 5 5.5t5 4.5q2 1 9.5 2.5t16.5 3t16.5 3t9.5 2.5q17 7 27.5 23.5t16.5 36.5t10 40.5t9 34.5q0 1 5 5t5 5q1 2 2.5 9t3 15l3 16t2.5 12v10v11q-1 9 -2.5 33t-3 50.5t-3 50.5 t-2.5 33q-3 1 -9.5 6.5t-13 12.5t-12 13.5t-6.5 9.5q-2 4 -4 14t-4 21.5t-3 22t0 14.5q-14 1 -22 6.5t-15 11.5t-15 10.5t-21 4.5q-5 0 -12.5 -0.5t-8.5 -0.5q-2 -1 -5 -10t-5 -11t-10.5 -5.5t-10.5 -5.5q-3 -3 -4 -9l-1 -6h88l32 -78q3 1 11 -3.5t10 -7.5q1 -2 2 -9.5 t2.5 -16.5t3 -16.5t2.5 -9.5q0 -1 5 -5t5 -5q1 -1 1 -5v-6q0 -7 -2 -11t-4 -7.5t-4 -8.5t-2 -14q0 -17 6 -22.5t6 -19.5q0 -7 -1.5 -12.5t-9.5 -8.5l-21 -104q-2 -1 -5.5 -4.5t-4.5 -5.5q-2 -2 -5.5 -10.5t-5.5 -10.5q-1 -2 -10 -5.5t-11 -4.5q-2 -2 -7.5 -8t-12.5 -13.5 t-13 -13.5t-8 -7t-8 -0.5t-13 0.5t-13.5 0.5t-7.5 -0.5q-2 -2 -5 -15.5t-5 -15.5q0 -1 -4 -1.5t-6 -0.5q-9 0 -17 5t-14 11.5t-11.5 14t-10.5 12.5q-1 2 -10 5.5t-11 5.5q-2 3 -2.5 11.5t-3 17t-7 15.5t-13.5 8v83h-31v-135q0 -2 -4 -6.5t-10 -9.5t-12 -9.5t-10 -6.5 t-14.5 -3.5t-22 -3t-22 -2.5t-14.5 -1q-3 -8 -8 -17t-13 -14zM217 365v-104h21v104h-21zM212 490v-91l6 1.5t10 6.5q2 2 5.5 13.5t4.5 17.5q1 4 2.5 15t3.5 23.5t3.5 23.5t1.5 16h41v15q-5 1 -20.5 5t-20.5 6q-2 0 -5.5 5t-5.5 5q-24 10 -51.5 12t-52.5 2v-20 q24 0 35.5 -3.5t15.5 -9t4 -12.5q0 -6 0.5 -12.5t5 -11.5t17.5 -7zM353 565q-11 0 -22 -2.5t-20 -10.5h42v13z" />
<glyph unicode="E" horiz-adv-x="648" d="M388 2q13 0 20.5 -3.5t13 -7.5t11.5 -7.5t17 -3.5h5q1 1 5 5.5t5 4.5q1 1 6 2.5l10 3l10 3t6 2.5q3 2 9 8t13 12.5t12 12.5t7 9q1 1 2.5 7.5t3 13.5t2.5 13t3 7q1 1 9 1t17 -0.5t16.5 -1t9.5 0.5q3 1 9.5 6.5t13.5 12.5t12 13.5t7 9.5q1 3 3 10.5t3.5 15.5t3 15.5 t1.5 10.5h-22q0 -3 -1.5 -9t-3 -12.5t-3 -12.5t-2.5 -8q-3 -6 -10.5 -10t-15.5 -6t-15.5 -3t-10.5 -2q-2 0 -5.5 -4.5t-5.5 -5.5q-3 -2 -9 0.5l-6 2.5v85l-6 -1.5t-10 -3.5q-2 -1 -10 -9l-11 -11q-1 -2 -5 -11t-5 -10q-2 -2 -11 -5.5t-10 -5.5q-2 -5 -1 -12.5l2 -15 t-1 -14.5t-11 -10q-1 0 -7 -1.5t-13 -3.5t-13.5 -3.5t-7.5 -1.5q-13 -5 -24.5 -13.5t-28.5 -8.5q-8 0 -14.5 3.5t-6.5 13.5q0 1 0.5 3l0.5 2q1 1 5.5 5t4.5 5l0.5 2t0.5 3q0 11 -6 15t-6 18q0 9 6.5 16t15 13.5t15 13.5t6.5 18v5q-1 2 -5 6t-6 5v122q3 0 10.5 0.5t15.5 1.5 t15 1h11q1 0 5.5 -2t10 -3.5t10 -3.5t5.5 -2q2 0 5.5 -0.5t5.5 -0.5v64q-12 -2 -20.5 -10.5t-10.5 -20.5h-68v51l-10 -2.5t-16 -7.5q-2 -1 -5 -7t-6 -13.5t-6 -13.5t-4 -7q-2 -3 -7.5 -10.5t-11.5 -14.5t-11.5 -12.5t-9.5 -5.5q-24 0 -34.5 6.5t-14.5 15.5t-3.5 20.5 t-0.5 20.5t-6.5 15.5t-20.5 6.5q-1 0 -3 -0.5l-2 -0.5q-2 -1 -6 -5t-4 -5v-167q4 -3 7 -8t5.5 -10.5t5.5 -9.5t8 -4l2 0.5t3 0.5q2 11 3.5 22.5t5.5 20.5t11 15t20 6q5 0 13 -0.5t9 -1.5q5 -1 12 -4l14 -6t11.5 -6t4.5 -4v-115l-10 -10q2 -1 5.5 -5t4.5 -6l0.5 -2t0.5 -3 q0 -5 -5.5 -13.5t-13 -16.5t-16 -13.5t-13.5 -5.5q-12 0 -23 11t-13 22q-1 4 -3 14.5t-3.5 22t-3 22t-1.5 14.5q-8 3 -19.5 13.5t-19.5 10.5v-36q0 -20 -4.5 -38.5t-16 -31t-33.5 -12.5q-11 0 -14.5 5.5t-11.5 5.5q-16 0 -27 -11t-11 -26q0 -2 5 -6t11 -8.5t12 -8t9 -3.5 q7 0 9.5 2t5.5 4t8.5 4t18.5 2q11 0 17.5 -2t11.5 -4t11 -4t17 -2q23 0 42.5 6t42.5 6q6 0 17.5 -0.5t12.5 -0.5t5 -5.5t5 -5.5q2 0 10.5 5.5t10.5 5.5q1 0 11.5 0.5t15.5 0.5zM507 220v-11h11v11h-11zM487 438q0 -7 -2 -11.5t-5 -8.5t-5 -9t-2 -14q10 0 17.5 3t16.5 9 q1 6 2.5 22.5t3 35t3 35t2.5 22.5v12q0 8 -3.5 14t-12.5 6q-8 0 -8.5 -4t-2 -8.5t-6 -8t-19.5 -3.5q-12 0 -20 5.5t-14.5 11.5t-14 11.5t-19.5 5.5q-5 0 -5 -1q-3 -1 -11 -4.5t-10 -5.5h-209q-2 0 -10 -4t-10 -6q-1 -1 -1 -5q0 -8 5.5 -14t13 -11t15.5 -8t13 -4v-73h39 q0 2 -0.5 5.5t-1.5 4.5q-1 2 -5.5 5.5t-5.5 5.5q-1 8 0.5 22t3 24t1.5 11h68q0 4 4 14t7 12q0 1 4 1.5t6 0.5t6 -0.5t5 -1.5q2 -1 10 -10.5t10 -10.5q2 0 10.5 5t10.5 6h11h10q2 -1 5.5 -5.5t5.5 -5.5q18 -7 29 -10t19.5 -7t16 -11.5t18.5 -23.5q1 -1 5.5 -5t4.5 -5 q1 -1 1 -5v-6zM111 522l11 -11v11h-11zM320 595q1 5 -6 5q-6 0 -5 -5q2 -5 5 -5q4 0 6 5z" />
<glyph unicode="F" d="M85 42v-44q6 0 10 2t7.5 4.5t7.5 4.5t11 2q11 0 16 -2t9.5 -4t11 -4t21.5 -2q6 0 18 0.5t13 0.5t5 5t5 5q1 1 5 1h6q7 0 12.5 -1.5t8.5 -9.5h111q0 16 -5 24t-12.5 13.5t-16 11.5t-15.5 19h-88l-4 10t-2 16q2 2 8 6t8 4v125q0 1 5.5 6.5t13 12.5t15.5 13.5t13 9.5 q1 0 4.5 0.5t5.5 0.5t5.5 -0.5t5.5 -0.5q5 -6 14 -15t17.5 -19.5t15 -22t6.5 -21.5q0 -7 -1 -15.5t-11 -10.5l32 -32q11 37 11 72v74v17t-0.5 25t-0.5 25v17q0 4 -4 16t-6 15q-1 0 -2.5 1t-2.5 1t-3 -1t-3 -1q0 -10 -3.5 -23t-10 -24t-16.5 -19t-22 -8q-11 0 -18 4.5 t-13 17.5h-73l-10 -11q8 -2 9.5 -8t1.5 -13q0 -10 -3 -16.5t-14 -14.5v-187q0 -5 -7.5 -12t-17.5 -13t-19.5 -11t-12.5 -6t-10.5 -2.5t-15.5 -3t-15.5 -3t-10.5 -1.5zM491 490q5 -31 8.5 -63.5t3.5 -64.5q2 0 5 1t4 2q2 1 6.5 5t4.5 5v188h-313q-13 -9 -30.5 -14t-31.5 -7 q-1 -1 -1.5 -3l-0.5 -2q0 -4 2 -6q1 -1 7.5 -2t13 -3.5t12.5 -6t8 -8.5q1 -4 3 -13t3.5 -18.5t3 -18.5t1.5 -13q2 -2 10 -5.5t10 -4.5q1 -1 6 -1h2t3 1q1 2 3 7.5t3.5 12.5t2.5 13t1 8t-5 5.5t-5 5.5l-0.5 4t-0.5 6q0 7 1.5 12.5t9.5 8.5q6 1 22.5 2.5t35 3t35 3t22.5 1.5 q1 0 5 0.5t6 0.5q13 0 31 -1.5t36 -6t33.5 -13t23.5 -21.5zM200 396q1 -2 4.5 -5.5l5.5 -5.5h5h5q2 2 6 5.5t5 5.5h-31z" />
<glyph unicode="G" d="M130 167q0 -32 10 -55t23 -49q1 -1 2.5 -5.5t3 -10t3 -10t1.5 -5.5q8 -13 22 -23t30 -16.5t32.5 -9.5t30.5 -3q20 0 43 4t40 17l10.5 10.5l10.5 10.5q1 0 4.5 0.5t5.5 0.5q12 0 16.5 -6.5t16.5 -6.5q4 0 9.5 4.5t10 10.5t8 12.5t3.5 10.5q0 8 -6 11.5t-6 14.5 q0 12 9 25.5t12 26.5q1 2 2.5 9.5t3 16.5t3 16.5t2.5 9.5q1 1 5.5 2.5t9.5 3l10 3t6 1.5q2 1 10.5 5.5t10.5 5.5t8 2.5t12.5 3t12.5 3t9 1.5v10q0 15 -8.5 19.5t-20.5 4.5q-11 0 -23.5 -2t-20.5 -1q-2 1 -5.5 5.5t-5.5 5.5l-8 0.5t-13 0.5q-4 0 -12 -0.5l-8 -0.5 q-2 -1 -5.5 -5.5t-5.5 -5.5q-4 -1 -14.5 -2.5t-22 -3t-22 -3t-14.5 -1.5v-26h50q0 -1 1 -9t1.5 -19.5t-0.5 -18.5q0 -2 -1 -7.5t-2.5 -12.5t-3.5 -13l-3 -9q-2 -5 -5 -13.5t-6.5 -16.5t-6 -14.5t-3.5 -7.5t-5.5 -2.5t-9.5 -3l-10 -3t-6 -1.5q-9 -4 -18.5 -11t-18.5 -14 t-18.5 -12.5t-18.5 -5.5q-2 0 -5.5 0.5l-3.5 0.5q-2 2 -5.5 10.5t-5.5 10.5q-10 10 -22 14l-24 8t-21.5 10t-15.5 20q0 1 -1.5 5.5t-3.5 10t-3.5 10t-2.5 5.5q0 2 -4.5 5.5t-5.5 5.5q-2 5 -6 20.5t-4 20.5h-23zM455 1v-11h10v11h-10zM340 32h21v-21h-21v21zM109 230 q0 -14 11 -19t22 -5v24h-33zM350 251q-5 1 -5 -6q0 -6 5 -5q5 2 5 5q0 4 -5 6zM121 282q-5 2 -5 -5t5 -5q5 1 5 4q0 4 -5 6zM402 480q0 -16 7.5 -28.5t17 -26t18 -30t10.5 -40.5h10v211q-11 0 -15.5 -7t-15.5 -7q-12 0 -22.5 5t-20.5 11t-18.5 11t-16.5 5h-6q-2 -1 -10 -5.5 t-10 -4.5q-4 -1 -14.5 -1.5t-22.5 -0.5q-11 0 -21.5 0.5t-14.5 1.5q1 -12 -5 -17.5t-15 -7.5t-18.5 -2.5t-13.5 -4.5q-2 -1 -5 -7l-6.5 -13t-6 -13.5t-3.5 -7.5q-8 -13 -15 -24.5t-7 -27.5h11q5 16 15.5 32.5t24 30t30 22.5t34.5 9q6 0 16.5 -2.5t21.5 -6t20.5 -7t14.5 -6.5 q1 0 4 -3t6.5 -7t6.5 -7t4 -3q1 -1 6 -1h3t2 1q1 1 4.5 10t5.5 10q2 2 8.5 -2t9.5 -4q0 -9 -1.5 -12.5t-3 -6.5t-2.5 -6t-1 -10z" />
<glyph unicode="H" horiz-adv-x="648" d="M103 0q1 -6 8 -9t14.5 -4t14.5 -1h9q0 13 -9.5 19t-21.5 6h-5q-2 -1 -5.5 -5t-4.5 -6zM186 52v-62h105q0 14 -8.5 25.5t-21.5 20t-27.5 13t-26.5 4.5h-11q-8 0 -10 -1zM363 0v-10h177q3 4 8.5 7t11 5.5t9.5 5.5t4 8q0 11 -11.5 20.5t-26 19.5t-26 21.5t-11.5 27.5 q0 11 6 15t6 16q0 7 -1.5 12.5t-9.5 8.5q-9 81 -11.5 166.5t-2.5 166.5h-7q0 -3 -1.5 -10.5t-3 -16t-3.5 -15.5t-3 -10q0 -2 -4 -6t-6 -5v-104q-15 -1 -38 -0.5t-44.5 -4t-37.5 -16.5t-16 -36h115l21 -26v-167q0 -2 -1 -7t-2.5 -10t-3.5 -9t-3 -5t-6 -2.5l-10 -3t-10 -2.5 t-6 -2q-1 -2 -4.5 -11t-5.5 -10q-2 -2 -8 -3.5t-12.5 -3.5t-12.5 -3t-9 -1zM176 177q7 -17 12 -35.5t9 -36.5q1 4 2.5 14t3 21.5t3 22t1.5 14.5v12v19v20v12q1 6 5 16t6 10h79l-1.5 10t-5.5 16q-6 12 -19.5 15.5t-27 6t-24.5 8.5t-12 22v5q0 6 -0.5 13.5t-0.5 14.5v12 q0 19 0.5 34t1.5 30t3.5 31.5t6.5 36.5q14 2 31.5 7t30.5 14l-21 31h-114q0 -16 -14.5 -23.5t-27.5 -7.5q8 -3 19 -8t21.5 -12t19 -15t13.5 -17v-6v-10v-10v-5q0 -2 5 -10.5t5 -10.5l0.5 -5.5t0.5 -8.5q0 -2 -0.5 -9t-0.5 -8q0 -13 -1.5 -45.5t-3 -69.5t-3 -69.5t-2.5 -45.5 zM384 531q8 0 19 -1t21.5 -4t19.5 -9.5t13 -16.5l10 26h89l-1 6t-4 10q-3 3 -10.5 9t-16.5 11t-18 9t-13 4q-10 0 -13.5 -4t-5.5 -8.5t-5 -8t-12 -3.5q-7 0 -10 3.5t-4.5 8t-3.5 8t-8 3.5q-1 0 -8.5 -5t-16.5 -12t-16 -13t-7 -7t0.5 -3t0.5 -3zM572 563q1 5 -6 5q-6 0 -5 -5 q2 -5 5 -5q4 0 6 5z" />
<glyph unicode="I" horiz-adv-x="656" d="M406 -15q0 -3 -0.5 -9t-0.5 -7t-5 -5t-5 -5q-1 -2 -2.5 -9.5t-3 -16.5t-3 -17t-2.5 -9q-1 -2 -10 -6t-10 -5q-2 -1 -6 -5l-5 -5q-2 -2 -8 -5t-12.5 -6t-12.5 -6t-9 -4h10q8 0 16.5 -0.5t15.5 -0.5h11q32 0 56.5 1t57.5 10q-2 12 -10.5 18.5t-17.5 11t-16.5 9t-7.5 13.5 v94l21 21q-4 0 -13 1t-19 2.5t-19 3.5t-12 3q-2 1 -10 10t-10 11q-3 3 -10 5.5t-14 6.5t-12.5 8.5t-5.5 10.5v385l4.5 1.5t11.5 3t14 3.5t12 3q2 0 9.5 1.5t16.5 3t16.5 3t9.5 2.5q8 3 20 12.5t12 18.5q0 6 -2 12t-10 9q-7 1 -24.5 4.5t-37.5 6.5t-38 6t-25 4h-4h-6 q-3 0 -17 -2t-29.5 -3.5t-29.5 -3t-18 -1.5q-8 -1 -16.5 0t-16 0.5t-15 -2.5t-14.5 -9q2 -1 5.5 -4.5t4.5 -5.5q2 -2 5.5 -10.5t5.5 -10.5q9 -9 23 -15t28.5 -12t26 -14t15.5 -21q1 -2 1 -8v-13t-0.5 -13.5t-0.5 -7.5l2.5 -17.5t3.5 -20.5l3.5 -17.5l1.5 -7.5l21 -10v-125 l-21 -10q0 -4 -1.5 -14.5t-3 -22t-3.5 -22t-3 -14.5q0 -1 -4.5 -5t-5.5 -5q-1 -2 -2.5 -9.5t-3 -16.5t-2.5 -17t-2 -9q-4 -8 -19 -15t-32 -15t-30.5 -17t-13.5 -21q0 -1 0.5 -3l0.5 -2q3 -5 11 -13t10 -8h145q1 6 6 8.5t11 3t12 0t8 -0.5q13 0 18.5 -2t8.5 -4t5.5 -4t9.5 -2 q1 0 2.5 0.5t2.5 0.5q2 1 5.5 4.5t4.5 5.5q0 -2 0.5 -7.5t0.5 -7.5zM343 375q2 -1 8 -3.5t12.5 -6t12.5 -7t8 -4.5q5 -3 13 -11t8 -10l16 -104v125l99 21v10q0 1 -5 3t-11.5 3.5t-14 3t-11.5 1.5h-8t-16 0.5t-18 0.5h-15h-12q-8 0 -17 -0.5t-17 -0.5h-11q-3 -1 -11 -5 t-10 -6q-1 0 -1 -2v-3q0 -4 1 -5z" />
<glyph unicode="J" horiz-adv-x="648" d="M118 125q0 -72 35 -104t105 -32q8 0 22.5 0.5t15.5 0.5q3 1 11.5 5t18.5 9l19 9.5t13 7.5q5 4 13.5 11.5t16.5 16t14.5 15.5t7.5 9q1 3 3 17t3.5 30t2.5 30t2 17q0 2 5 10.5t5 10.5q1 6 -0.5 17t-1.5 23t2.5 23.5t10.5 19.5q-8 -7 -12 -9t-8 -2q-3 0 -7 1.5t-12 1.5 q0 2 -2 9t-1 9q0 2 5 6t5 5q2 2 5.5 7t6.5 10t6 9t3 5l0.5 2t0.5 3q0 9 -6 12.5t-6 13.5q0 7 2 11.5t4 8t4 8.5t2 13q0 17 -6 31.5t-6 31.5q0 2 0.5 6t0.5 5q1 4 4.5 16t5.5 15q29 0 64.5 5.5t60.5 25.5l-41 42q-2 1 -14.5 3t-29 3.5t-33.5 2.5t-28 1q-6 0 -22.5 -1 t-34.5 -2.5t-34.5 -3.5t-22.5 -3q-1 -2 -2 -10.5t-1 -10.5q0 -13 8 -20.5t20 -12.5t25 -9t23 -10q0 -4 1.5 -14.5t3 -22t3 -22t2.5 -14.5q1 -2 5 -6t6 -4q0 -5 0.5 -18.5t0.5 -18.5q0 -7 -0.5 -21t-0.5 -15q-1 -2 -6 -10.5t-5 -10.5v-14v-23v-23v-13q-1 -8 -5 -22t-5 -14 h-63q2 -11 13 -17.5t24.5 -10t26.5 -6t20 -3.5q-2 0 -6 -4t-5 -6q0 -2 -1.5 -9.5t-3 -16.5t-3 -16.5t-2.5 -9.5t-10.5 -5.5t-10.5 -5.5q-1 -1 -2.5 -5.5t-3 -9.5l-3 -10t-1.5 -6q-2 -2 -5.5 -6t-5.5 -4h-114q-2 0 -7 2.5t-10 5.5t-9.5 6.5t-5.5 6.5l-0.5 5.5t-0.5 8.5v13 t1 3.5t3.5 2t7.5 8.5l8 12t13 19t12.5 19t7.5 13q0 4 -7 13t-16 18t-17 15.5t-11 6.5q-23 0 -36 -12t-19 -30t-7.5 -38t-1.5 -36zM254 302q0 -16 1.5 -26.5t9.5 -25.5q0 4 1 13t2.5 18.5t3.5 18.5t3 13q1 1 5.5 5t5.5 5q1 2 4.5 7t6.5 10t6 9t3 5q1 1 1 3v3v3t-1 2 q-1 1 -9 5t-11 5q-1 0 -3 0.5t-3 0.5q-11 0 -16 -9t-7.5 -21t-2.5 -25v-19zM483 261v-11l11 11h-11zM598 521q-5 1 -5 -6q0 -6 5 -5q5 2 5 5q0 4 -5 6zM431 729q9 -2 23 -6t27.5 -10t23 -14.5t10.5 -21.5l10 26h83l11 16l-11 10h-177z" />
<glyph unicode="K" d="M395 136q0 -4 1.5 -14.5t3 -22t3 -22t2.5 -14.5q1 -1 5.5 -5t5.5 -5q2 -6 -1 -16.5l-3 -10.5h-44l1.5 -5.5t4.5 -9.5q2 -3 10 -6.5t17 -6.5l16.5 -5.5t8.5 -2.5h5q22 0 42.5 5.5t42.5 5.5q7 0 14.5 -0.5t10.5 -10.5q16 6 21.5 22t5.5 30h-69q-8 21 -24 38t-28 35 q-32 48 -52 104q-2 4 -7.5 18.5t-3.5 23.5l-41 -21q-1 0 -1.5 -2t-0.5 -3q0 -6 3.5 -8.5t8 -4.5t8.5 -5t4 -12q0 -7 -1 -16t-11 -11q7 -5 10.5 -12t7 -13t8.5 -11t16 -6zM181 84q-5 -1 -14.5 -8.5t-11.5 -12.5q-1 -3 -2.5 -12t-3 -19t-2.5 -19t-1 -13h134l21 11 q-16 10 -21 21t-8.5 21t-12 18t-31.5 13q0 4 -0.5 18t-0.5 18q0 12 3 30t10 36t16.5 33t23.5 21q2 1 9.5 2.5t16.5 3t16.5 3t9.5 2.5t5.5 9.5t5.5 10.5q1 2 5 6l5 5l0.5 2t0.5 3q0 9 -6 12t-6 14q0 9 5 17.5t12 16l14 15t11 14.5q2 2 5.5 15.5t5.5 15.5t15.5 5t15.5 5 q1 1 4 7.5t6.5 13.5l6.5 13l4 8t10 5.5t11 4.5q1 2 4.5 11t5.5 10q16 10 30.5 12.5t25.5 7.5t18 16t7 37h-154q-2 0 -7 -3.5t-10 -8.5t-9 -10.5t-5 -8.5q-5 -15 -4 -27t2.5 -22.5t1 -21t-9.5 -23.5l-8 -8t-13.5 -13t-13.5 -13t-7 -8q-1 -1 -2.5 -5.5t-3 -9.5l-3 -10t-2.5 -6 q-20 -40 -49 -57.5t-76 -15.5v-5q0 -9 6 -12t6 -14t-3 -17t-14 -14v-146zM113 11q2 5 -5 5t-5 -5t5 -5q4 0 5 5zM186 359q0 -17 8 -22.5t26 -5.5q0 6 -2 10t-5 7.5t-5 7t-2 9.5q0 2 0.5 6t0.5 5q1 1 5.5 5t5.5 5q0 3 1.5 13.5t3.5 23t3.5 23t1.5 13.5q2 6 5.5 18t4.5 13 t6 2.5l10 3l10 3t6 2.5q2 1 5.5 10t4.5 11q1 1 6 4.5t5 5.5q0 7 -4.5 19t-6.5 12h-125l-21 -31q9 -8 20.5 -18.5t21 -22.5t16 -25.5t6.5 -26.5q0 -21 -6 -40t-6 -40z" />
<glyph unicode="L" d="M106 42v-32q0 -1 6 -2.5t14 -3t17 -3t15 -1.5h13t28.5 -0.5t32.5 -0.5h27h63t57 1t57.5 3.5t64.5 6.5q3 2 8 7.5t10 12.5t9 13t5 9q0 1 0.5 6.5t0.5 12.5q0 8 0.5 15t0.5 12q0 4 -0.5 12t-0.5 15q0 8 -0.5 14t-0.5 7q-1 4 -5 13t-9 19t-10 18.5t-8 11.5q-8 -2 -12 -21.5 t-10 -44t-17 -47.5t-33 -33h-8h-13h-14h-7q-2 0 -10.5 -4.5t-10.5 -5.5l-4 -0.5t-6 -0.5q-9 0 -22.5 6.5t-26.5 16.5t-23 21t-12 19q-1 4 -2.5 14.5t-3 22t-3 22t-1.5 14.5q-7 2 -18 12t-18 10q-1 0 -3 -0.5t-3 -0.5q0 -5 -1.5 -18.5t-3 -28.5t-3 -28.5t-2.5 -18.5 q-3 -15 -7 -22.5t-10 -12t-14.5 -8t-20.5 -9.5q-3 -1 -10.5 -4t-15.5 -6.5t-15.5 -6zM460 52h21v-21h-21v21zM220 250q11 -4 21 -14t21 -10v122q-5 0 -12 -1.5t-13.5 -5t-11.5 -8t-5 -10.5v-73zM266 400q-16 0 -32.5 -9.5t-16.5 -28.5q6 0 14.5 3.5t16 9t13 12.5t5.5 13z M220 458v-46q4 0 10 5.5t11.5 13t9 15t3.5 12.5h-34zM116 551q17 -2 32 -10t29.5 -17.5t29 -17t29.5 -7.5q9 0 15 3t12 6.5t12.5 7t17.5 4.5h11h20h20h12q6 1 8.5 7t4 13.5t1.5 13.5v8h-233z" />
<glyph unicode="M" horiz-adv-x="648" d="M78 31q7 -12 18.5 -18.5t24 -10t26 -4.5t25.5 -1q5 0 17 1t14 2l10 10h94q1 -2 4.5 -5.5t5.5 -4.5q1 0 2.5 -0.5t3.5 -0.5q10 0 14 7t6 16t5 17.5t11 12.5q1 8 3.5 29t6 44t6.5 44t5 29q0 1 1.5 5.5t3 10t3.5 10t2 5.5q0 2 1.5 9.5t3 16.5t3 16.5t3.5 9.5t7.5 4.5t12 4 t12.5 2t9 -0.5q1 -2 1 -8v-7q0 -7 -2 -10.5t-4 -6.5l-4 -6t-2 -8q0 -9 6 -12.5t6 -13.5q0 -11 -5.5 -14.5t-5.5 -11.5v-6q0 -2 2 -8t3.5 -12.5l3 -13t1.5 -7.5t0.5 -5t0.5 -6q0 -5 -9.5 -21t-20.5 -34t-21.5 -33t-11.5 -16q16 -6 24.5 -12t16 -10.5t16.5 -7t25 -2.5 q10 0 26.5 0.5t32 4t26.5 11t11 21.5q0 3 -0.5 9t-0.5 7q-1 2 -10.5 10.5t-10.5 10.5q-11 19 -20 46t-11 48q-1 7 -3 26.5t-3.5 41t-3 40.5t-1.5 27q-8 3 -9.5 8.5t-1.5 12.5q0 11 6 15.5t6 15.5q0 7 -2 11.5t-4 8t-4 8.5t-2 13q0 4 0.5 12t0.5 9q0 2 5 10.5t5 10.5 q1 4 3 16t3.5 25.5t3 25t1.5 16.5q-8 -7 -12 -9t-7 -1.5t-7 2t-13 1.5q0 11 1.5 16t3.5 9.5t3.5 10t1.5 18.5q-3 0 -11 -1.5t-16.5 -4t-16.5 -5t-11 -4.5q-1 -1 -2.5 -7t-3 -13.5t-3 -14t-1.5 -7.5q-1 -2 -4.5 -10.5t-5.5 -10.5q-1 -1 -6 -5t-5 -5v-10v-16v-17v-9t-5 -5.5 t-5 -5.5l-0.5 -8t-0.5 -13q0 -8 2 -13t4 -8.5t4 -8t2 -11.5q0 -19 -17.5 -36t-36.5 -17q-2 0 -5.5 0.5l-3.5 0.5q-28 22 -39 51.5t-13 62.5q-4 -7 -6.5 -17t-6 -19.5t-9 -17t-15.5 -8.5v-94q-2 -1 -8 -4.5t-7 -5.5q-1 0 -1 -2v-3q0 -8 5 -14t11.5 -13t11.5 -14t5 -16 q0 -2 -0.5 -6.5l-0.5 -4.5q-1 -1 -5.5 -5t-4.5 -5q0 -2 5 -10.5t5 -10.5q0 -4 -0.5 -13.5t-1 -19.5t-1.5 -19.5t-1 -13.5q-2 0 -8.5 -4.5t-8.5 -2.5q-2 1 -6.5 7t-9.5 13t-9.5 13t-5.5 8t-5.5 5.5t-5.5 5.5v11v19v20v12t-5 5.5t-5 5.5l-0.5 6t-0.5 9t0.5 9t0.5 7t2 5.5 t3.5 10t3 10t1.5 5.5q0 2 -1.5 9.5t-3 16.5t-3.5 16.5t-2 9.5t-0.5 14t-0.5 17t0.5 13l0.5 8q3 3 10 5.5t15 4.5t16 2t11 -1v47h-44q0 1 -3 8.5t-5 19t0 18.5q1 2 10.5 5.5t10.5 5.5t2 8.5t2.5 13.5t2.5 13.5t1 8.5q-11 0 -15 -1.5t-7 -3.5t-7.5 -3.5t-16.5 -1.5q0 12 1 16 t2.5 6t2.5 3.5t1 7.5v6q-4 0 -14.5 1t-22 2.5t-22 3.5t-14.5 3q-2 1 -6 4.5t-5 5.5v-33q18 0 34 -9.5t18 -29.5q0 -3 0.5 -10.5t0.5 -16.5v-15v-10q0 -81 -1 -162.5t-20 -160.5l-6 -18t-5 -13t-5.5 -2.5t-9.5 -3l-10 -3t-6 -2.5l-0.5 -1.5t-0.5 -3.5q0 -6 3.5 -8t8 -3.5 t8 -4.5t3.5 -10q0 -9 -4 -15.5t-18 -5.5zM351 289q0 -20 -8 -25t-26 -5q-2 0 -10 0.5t-10 0.5q-2 4 2.5 11.5t7.5 9.5q2 1 8.5 2t13.5 2.5t13.5 2.5t8.5 1zM545 301q0 -13 9 -22t22 -9h6q5 0 6 1q2 0 8 1.5t12.5 3t12.5 3t9 2.5v5q0 14 -4.5 27t-10 26t-10.5 27t-7 29 q-1 8 -2.5 27t-3 41t-3 41t-1.5 27q-6 -42 -9.5 -88t-0.5 -89q-5 -3 -10.5 -9.5t-10.5 -14.5t-8.5 -15.5t-3.5 -13.5zM453 312q-2 -5 -6 -5q-3 0 -5 5q-1 5 5 5q7 0 6 -5zM276 531q-3 1 -4 -2.5t-1 -8.5q0 -4 1 -7.5t4 -2.5q5 2 5 10q0 9 -5 11zM515 552v-11h21v11h-21z M494 583q-2 1 -3.5 -2.5t-1.5 -8.5q0 -4 1.5 -7.5t3.5 -2.5q5 2 5 10q0 9 -5 11zM328 645q2 3 -5 4t-16 1t-16 -1t-5 -4q5 -5 21 -5t21 5zM557 729q0 -5 4 -16.5t6 -15.5l2 -0.5t3 -0.5q12 0 15.5 11.5t3.5 21.5h-34z" />
<glyph unicode="N" horiz-adv-x="650" d="M220 454q2 0 10.5 3.5t10.5 1.5q9 -5 17 -19t14.5 -33t12.5 -40.5t10.5 -42t9 -37.5t9.5 -26q1 -1 5.5 -5t4.5 -5q1 -2 2.5 -11.5t3 -20t3 -20t2.5 -11.5t10 -10.5t11 -10.5q7 -14 10 -30t5.5 -32.5t5.5 -33t10 -29.5q1 -2 10 -5.5t11 -4.5q2 -2 6.5 -8t9.5 -12.5 t9 -12.5l6 -9q26 21 39 37.5t13 47.5q0 80 -5.5 158.5t-5.5 157.5v15v24q0 13 0.5 24t0.5 15q1 3 5 11t9.5 17t10 16t6.5 9q1 1 7.5 2t14 2.5t13.5 3t7 2.5t2 7t1 9q0 2 -1 7.5t-2 7.5q-6 1 -21 2.5t-31.5 3t-31.5 3t-21 2.5h-16h-15q-5 0 -16.5 -1.5t-25 -3.5t-25.5 -3.5 t-16 -2.5q17 -22 41 -43.5t53 -29.5v-239q0 -1 -3.5 -4t-8.5 -6.5t-10.5 -6.5t-9.5 -4q0 -1 -4 -1h-6h-6q-3 0 -5 1q-1 23 -8 48t-17.5 50t-23 48t-24.5 41q-2 2 -5.5 10.5t-4.5 10.5q0 1 -1.5 7.5t-3.5 13.5t-3.5 13t-1.5 8q-7 15 -15.5 24.5t-17 18.5t-14 20.5t-6.5 30.5 l-125 -11v-5v-5q2 -2 10 -10.5t11 -10.5q3 -3 12 -9t19 -12.5t19 -12.5t13 -8q0 -1 0.5 -5t0.5 -5q0 -11 -6 -14t-6 -12v-5q1 -2 5 -6t6 -5v-240l-11 -10l-20 -94q-6 0 -16.5 -2t-21 -6.5t-18.5 -11t-8 -16.5q0 -2 3.5 -10t7.5 -17.5t7.5 -18t3.5 -12.5q9 8 15 9.5t16 1.5 q17 0 30 -5.5t32 -5.5h32q1 0 5.5 2t10 3.5t10 3.5t5.5 2t7.5 1.5t14 3t13.5 3t7 2.5t2.5 11t1.5 15q0 3 -1.5 13.5t-2.5 12.5q-2 2 -10.5 6t-10.5 5q-2 0 -8 1.5t-13.5 3t-13.5 3t-7 2.5l-1.5 5t-3 12l-3 14t-2.5 11q-2 12 -3 26.5t-3 30t-5.5 30.5t-9.5 28v203z" />
<glyph unicode="O" d="M233 22q0 -8 16.5 -16t38 -14t41.5 -9.5t28 -3.5q43 0 68 16.5t41 36t26 36t22 16.5v52l21 10l1.5 17t3.5 40t3.5 48t2.5 41v39q0 30 -6 61.5t-26 55.5q-1 2 -10 5.5t-10 5.5q-5 7 -6.5 17.5t-4 21t-7 19.5t-14.5 14q-1 1 -5.5 2.5t-10 3t-10 3t-5.5 2.5q-2 1 -5.5 10 t-4.5 11q-1 0 -2.5 0.5t-3.5 0.5q-1 0 -2.5 -0.5t-2.5 -0.5q-1 -2 -4.5 -14t-5.5 -18l-0.5 -2t-0.5 -4q0 -1 0.5 -2.5l0.5 -1.5q1 -1 6 -2.5l10 -3t9.5 -2.5t5.5 -2q2 -2 5.5 -10.5t5.5 -10.5q26 -41 35 -81t17 -86q1 -8 4.5 -14.5t7 -12.5t6.5 -12t3 -13t-3.5 -11 t-7.5 -7.5t-7.5 -7.5t-3.5 -10t3.5 -8t8 -4t8 -5t3.5 -10q0 -9 -6 -12t-13.5 -5.5t-14.5 -7t-9 -16.5q-1 -5 -3 -16.5t-3.5 -24.5t-3 -25t-1.5 -17q-27 4 -43 -2t-28.5 -15t-26.5 -17t-37 -8h-10q-2 1 -5.5 6t-5.5 5q-1 0 -13 0.5t-18 0.5q-4 0 -15.5 -0.5t-15.5 -0.5 q-2 -3 -6.5 -15t-4.5 -16zM119 209q0 -40 19.5 -77.5t42.5 -68.5l6 -6t5 -4q2 0 8 1t13 2.5t12.5 3.5t7.5 3q1 1 1 3v2q0 5 -1 6q-2 6 -5.5 18t-4.5 13t-7.5 2.5t-13.5 2.5t-13.5 2.5t-7.5 2.5t-2.5 9t-3 17t-3 16.5t-1.5 9.5q-4 14 -13 21.5t-9 20.5q0 10 6 13.5t6 12.5 q0 3 -3.5 9t-8 12.5t-9 11.5t-5.5 5q-4 0 -6 -2q-1 -3 -3 -12t-3.5 -18.5t-2.5 -18.5t-1 -13zM462 209q-17 0 -28 -7t-24 -14q-5 -3 -15.5 -6t-21.5 -6t-21 -5.5l-14 -3.5q5 0 20.5 -0.5t20.5 -0.5q32 0 53 8.5t41 34.5h-11zM285 188l21 -10v10h-21zM119 365v-23 q10 0 16.5 6.5t6.5 16.5h-23zM161 479q0 -3 -1 -10.5t-3 -15.5t-4 -15.5t-3 -10.5q-1 -2 -10 -5t-11 -5q-1 -2 -2.5 -11t-1.5 -11q2 0 8.5 1.5t14 3t14.5 3.5t9 4q2 1 5.5 13t4.5 18q1 5 2 20.5t1 20.5h-23zM546 500q-3 2 -4 -3.5t-1 -12.5q0 -6 1 -11.5t4 -3.5q5 4 5 16 t-5 15zM213 531v-10h10v10h-10zM265 563v-11h52v11h-52zM348 573q0 -11 7 -18t17 -7q0 8 -1.5 20t-12.5 15q-2 0 -6 -4t-4 -6z" />
<glyph unicode="P" d="M97 19q0 -2 0.5 -5l0.5 -3l104 -21q14 8 30 14.5t33 6.5q7 0 14.5 -3.5t15 -7.5t15.5 -7.5t17 -3.5v63q-3 1 -11 5t-10 6q-1 1 -4.5 10t-5.5 11q-2 1 -8 2t-13.5 2.5t-13.5 3t-7 2.5q-4 4 -6 14t-3 22t-1.5 23t-0.5 19q0 23 1.5 38t9.5 40h42q42 3 82.5 4.5t72 13 t51 38.5t19.5 80h-22v-47h-130l-11 -26h-104q0 2 -4 10.5t-6 10.5q-1 0 -2.5 0.5t-2.5 0.5q-2 0 -3.5 -0.5t-2.5 -0.5q-1 -2 -5 -10.5t-5 -10.5t-5.5 -5.5t-4.5 -5.5q-1 -2 -3 -9t-3.5 -15.5t-3 -16t-1.5 -11.5q-1 -8 -2.5 -27t-3 -40.5t-3 -41t-1.5 -26.5l-21 -37h-73 q8 -6 9.5 -12t1.5 -14q0 -6 -2 -9.5t-4 -6.5t-4 -7t-2 -10zM202 406q5 -14 19 -24t29 -10q0 6 -1 17t-4 22.5t-9.5 19.5t-18.5 8q-1 0 -2.5 -0.5l-1.5 -0.5q-4 -5 -8 -17.5t-3 -14.5zM535 417v-21h11v21h-11zM342 511q18 0 46.5 -2t55 -10t45 -25t15.5 -47h10q0 2 1 9.5 t3.5 16.5t6.5 16.5t10 9.5l-5.5 5.5t-4.5 5.5q-2 2 -8 9.5t-13 16.5t-13 16.5t-8 9.5q-3 2 -10.5 3t-15.5 2.5t-15.5 5t-10.5 10.5h-104l-10 10l-11 -21h-73l-10 -21h-52q-2 17 -11 21t-25 4q0 -2 1.5 -8.5t4 -14t5 -14t4.5 -9.5q1 -1 7 -2.5t13.5 -3t13.5 -2.5t8 -2 t5 -10.5t5 -10.5q1 0 8.5 -1t12.5 -1q4 0 12 1t9 1q3 2 7 10t3 11q4 1 14.5 2.5t22 3t22 3t14.5 1.5q1 1 7 1h8zM98 542v-11h10v11h-10zM213 573q-5 1 -5 -6q0 -6 5 -4q5 1 5 4q0 4 -5 6z" />
<glyph unicode="Q" d="M354 -15q0 -5 1.5 -17.5t3 -26.5t3 -26.5t2.5 -17.5q1 -6 6.5 -21.5t13.5 -31.5t16.5 -28.5t15.5 -12.5h94q13 18 26 31.5t23.5 28t17 31t6.5 40.5q0 6 -5 9t-11.5 4.5t-14.5 1.5h-12q-9 0 -14 -6.5t-10 -15t-12 -15t-19 -6.5q-9 0 -21 0.5t-23 3.5t-18.5 9.5t-7.5 18.5 q0 7 1.5 12.5t9.5 8.5q-2 20 -4 42.5t0.5 42.5t12.5 36.5t33 24.5v73q2 0 6 4t5 6q1 3 2.5 10.5t3 16t3 15.5t1.5 10q0 7 1 25.5t1.5 38.5t1 38t0.5 25q-16 0 -27.5 -10t-28.5 -13v-135q-2 -1 -5.5 -4.5l-5.5 -5.5v-6q0 -8 6 -11.5t6 -14.5q0 -1 -0.5 -5t-0.5 -5 q-3 -2 -10.5 -5t-15.5 -6.5t-15.5 -6l-10.5 -3.5q-1 0 -5 -0.5t-6 -0.5q-6 0 -19.5 7.5t-27 18t-24.5 21t-12 17.5q-2 -3 -10 -11t-11 -10q-1 -2 -10 -5.5t-10 -5.5q-2 -1 -8 -7.5t-13 -13.5l-13 -13t-8 -7q-1 -1 -8.5 -1.5t-11.5 -0.5q-5 0 -13 0.5t-9 1.5q-2 1 -5.5 10 t-4.5 10q-2 2 -11 5.5t-10 5.5q-1 1 -2 7.5t-2.5 14t-3 13.5t-2.5 7q-3 2 -9.5 4.5t-14 4.5t-14.5 3.5t-9 1.5q0 -28 8.5 -49.5t21 -40.5t26 -38.5t22.5 -42.5q0 -1 1.5 -6l3 -10t3 -9.5t2.5 -5.5q2 -1 9.5 -2.5t16.5 -3t16.5 -2.5t9.5 -2q2 -2 6.5 -7.5t4.5 -8.5h125z M244 71q0 20 12 33t31 13q3 0 8.5 -0.5t6.5 -1.5t2.5 -7t3 -13t2.5 -13.5t2 -7.5q1 -2 5.5 -5.5t4.5 -5.5q1 -2 2.5 -13.5t1.5 -13.5q-2 0 -12 2t-12 4t-5.5 11t-5.5 10t-9 2.5t-14.5 2.5t-14.5 2t-9 1zM83 365v-125h10l1.5 10.5t3 25.5t3.5 31t3 27q0 3 0.5 15t0.5 16h-22z M104 407q0 -3 4 -11t6 -10v41q-2 -2 -6 -9.5t-4 -10.5zM438 417q0 -7 -2 -11.5t-5 -8t-5 -8.5t-2 -14q25 0 34.5 12t9.5 35q0 19 -14 28.5t-31 9.5q0 -9 2.5 -14t5 -9t5 -8.5t2.5 -11.5zM374 459q-5 1 -5 -6q0 -6 5 -5q5 2 5 5q0 4 -5 6zM313 543q2 0 5.5 -0.5l3.5 -0.5 q2 -1 5.5 -10t5.5 -11q9 -10 25.5 -15.5t26.5 -15.5q1 -2 5 -10.5t5 -10.5q2 -1 13 -2.5t12 -1.5q0 33 -10.5 53t-28 31t-41 15.5t-49.5 8.5q-1 0 -5 0.5t-5 0.5v-45q11 0 15.5 7t16.5 7zM177 532q9 -9 17 -10.5t19 -1.5q9 0 18 2.5t9 14.5q0 1 -0.5 3l-0.5 2q-1 4 -5 11.5 t-5 9.5q-1 0 -2.5 0.5t-2.5 0.5q-2 0 -3.5 -0.5t-2.5 -0.5q-1 -2 -4.5 -11t-5.5 -10q-3 -2 -15 -6t-16 -4z" />
<glyph unicode="R" d="M101 0q4 0 14.5 -1t22 -2.5t22 -3.5t14.5 -3q2 -1 10.5 -10t10.5 -11l2 -0.5t3 -0.5t3 0.5l2 0.5q1 1 5 5.5t6 4.5q3 2 11 6.5t9 4.5q11 1 24.5 0t27.5 -1t28 2t25 9v5v6q-1 1 -5.5 5t-5.5 5q-1 2 -4.5 11t-5.5 10t-8 2.5t-13 3t-13.5 3t-7.5 1.5q-6 3 -11.5 9.5t-10 15 t-9.5 16t-11 11.5v136q2 0 16 2t35 4.5t33 3.5q1 0 5 0.5t6 0.5t5.5 -0.5t4.5 -0.5q4 -1 16 -4.5t15 -5.5q7 -4 19 -11.5t12 -9.5l21 -104q8 -3 9.5 -8.5t1.5 -12.5q0 -11 -6 -18.5t-6 -18.5q0 -1 0.5 -2.5t0.5 -2.5q1 -1 5.5 -5t4.5 -5q1 -2 4.5 -8t7 -12.5t6 -12.5t3.5 -9 h115q2 0 9.5 8t11.5 13v5q0 7 -9.5 18.5t-11.5 18.5q-4 0 -13 1.5t-19 3t-19 3t-12 2.5q-2 1 -5.5 5t-4.5 6q-1 5 -4 18.5t-6.5 28t-6.5 28t-4 18.5q-5 21 -12.5 28t-14.5 9.5t-12 4t-5 10.5q0 2 1 6t1 5q2 2 11 5t10 5q1 1 1 7q0 7 -0.5 14t-0.5 13v8q1 2 10.5 10.5 t10.5 10.5q1 1 2.5 7.5t3 13.5t3 13t1.5 7l4 4t7 6.5t7 6.5t3 4q1 4 2.5 13t2.5 18.5t2 18.5t1 13h-18q1 -3 0.5 -11t-2.5 -16t-4.5 -15t-4.5 -10q-1 -2 -7 -3t-13 -2.5t-13.5 -3t-7.5 -2.5t-2.5 -7t-3 -13.5t-3 -13.5t-2.5 -7q-2 -2 -9.5 -5t-16.5 -6.5t-16.5 -6t-9.5 -3.5 t-5.5 -5t-4.5 -6h-73q-1 2 -4.5 6t-5.5 5q-6 2 -16.5 2.5l-10.5 0.5v-38l-10 -5t-16 -2q-2 1 -5 10.5t-5 10.5q-5 2 -20 5t-20 3q0 -63 -3.5 -129.5t-8.5 -128.5q-15 -2 -38 -10.5t-35 -20.5q0 -1 -0.5 -2.5t-0.5 -3.5l0.5 -2t0.5 -3zM403 292h21v-21h-21v21zM195 354 q-3 1 -4 -2.5t-1 -8.5q0 -4 1 -7.5t4 -1.5q5 2 5 10t-5 10zM195 438v-42h10zM444 484q0 -1 6.5 -7t14.5 -13.5t16.5 -13.5t11.5 -6q0 7 -0.5 17t-3 20t-8 18.5t-15.5 11.5q-3 -2 -11 -10t-10 -11q-1 -1 -1 -6zM151 542q0 -2 1 -5.5t1 -4.5q2 -6 5.5 -15t6.5 -17.5t6 -14.5 l3 -6h31v63h-54zM412 542q0 -2 0.5 -5.5t1.5 -4.5q1 -3 4.5 -11t5.5 -10v31h-12zM101 552v-10h10v10h-10zM330 573v-38q7 0 16.5 1t18.5 4t17 8.5t11 14.5q-14 -2 -32.5 -1.5t-30.5 11.5z" />
<glyph unicode="S" horiz-adv-x="653" d="M173 32q4 0 14.5 -1.5t22 -3t22 -3t14.5 -2.5q1 -1 5 -5.5t5 -5.5q4 -2 12 -5.5t16 -6.5t15 -6t9 -3q6 -1 22.5 -3t35 -3.5t35 -2.5t22.5 -1q2 3 10 11t11 10q2 1 10.5 5t10.5 5q20 16 30.5 39.5t21.5 44.5v5q0 8 -6 11.5t-6 14.5q0 7 2 11t4 7.5t4 8.5t2 14 q0 29 -5 50.5t-16 53.5q-3 1 -9 4t-12.5 6.5t-12.5 6.5l-8 4q-1 1 -5 5.5t-5 5.5q-2 1 -10.5 4.5t-10.5 5.5t-5.5 11t-5.5 10q0 1 -8 1.5t-12 0.5q-15 0 -19.5 -4t-6 -8.5t-4 -8t-12.5 -3.5q-9 0 -15.5 4t-5.5 18h-93v-10q0 -1 6 -5t14 -9t17 -10t15 -8q4 -2 15.5 -5.5 t15.5 -4.5h7h13h13h8t5.5 -5t5.5 -6q1 0 7.5 -1.5t13.5 -3t13 -3t7 -2.5q1 0 4 -3t6.5 -7t6.5 -7l4 -4q1 0 6 -1.5l10 -3l10 -3t6 -2.5q0 -1 4 -8.5t6 -12.5q0 -1 1.5 -5.5t3.5 -10t3.5 -10t1.5 -5.5q1 -2 5.5 -5.5t5.5 -5.5l0.5 -4t0.5 -6t-0.5 -6l-0.5 -4q-1 -2 -5.5 -5.5 t-5.5 -5.5q0 -2 -1.5 -8t-3 -13t-3 -13t-2.5 -7q-1 -2 -7 -5t-13.5 -6.5t-14 -6t-7.5 -3.5l-4 -4t-6.5 -7t-6.5 -7t-4 -3q-14 -8 -39 -15t-42 -7q-5 0 -13.5 0.5t-9.5 0.5q-2 1 -4.5 7t-5.5 13.5t-6 13.5l-4 8q-1 1 -6 2t-10 2.5l-10 3t-6 2.5t-5.5 6t-9.5 10t-10 9.5 t-6 5.5t-6 1q-4 0 -9.5 -0.5t-10.5 -0.5h-5q-2 1 -5.5 10.5t-5.5 10.5q-2 2 -11 4t-11 2q0 -29 3.5 -55t8.5 -55zM319 147v-11h21v11h-21zM381 178v-11l11 11h-11zM121 209v-31h73q-11 1 -19 6t-14.5 11t-13.5 10.5t-16 4.5q-1 0 -4.5 -0.5t-5.5 -0.5zM165 421q0 -12 3 -26 t9 -26t16.5 -20t25.5 -8q0 3 -0.5 12.5t-1 20t-1.5 20t-1 13.5q-1 2 -5 6t-6 4t-7.5 1t-12 1.5t-12.5 1t-7 0.5zM319 438q-2 1 -3.5 -2.5t-1.5 -8.5q0 -4 1.5 -7.5t3.5 -2.5q5 2 5 10q0 9 -5 11zM307 543q9 0 24 -3t30.5 -7.5t29.5 -10.5t21 -11q2 -1 5.5 -10t5.5 -11 t10.5 -5.5t10.5 -4.5q7 -6 13.5 -14.5t13.5 -16t16 -12.5t20 -5q0 1 -0.5 8t-0.5 8q0 7 -1.5 25t-3.5 38t-3.5 37.5t-1.5 24.5q-10 -8 -18.5 -9.5t-19.5 -1.5q-9 0 -12 3.5t-5 8t-4.5 8t-8.5 3.5q-7 0 -9.5 -2t-5.5 -4.5t-8.5 -4.5t-18.5 -2q-11 0 -16.5 2t-10.5 4.5 t-10 4.5t-14 2q-5 0 -18 -3.5t-30.5 -9t-37 -12.5t-36 -14t-28 -13.5t-12.5 -11.5q0 -2 -1 -7.5t-1.5 -11.5l-1 -12t-0.5 -7q4 0 18 2.5t17 4.5q2 1 5.5 10.5t5.5 10.5q1 1 7 2.5t13 3t13 3t8 1.5q1 1 6 4t10 7t9.5 7t6.5 3l7.5 0.5t11.5 0.5zM362 657q0 -16 12.5 -25 t27.5 -7v32h-40zM340 667q1 5 -6 5q-6 0 -5 -5q2 -5 5 -5q4 0 6 5z" />
<glyph unicode="T" d="M187 20q0 -9 4 -14.5t18 -5.5h219q2 0 7 2.5t10 6t9 7t5 5.5q1 0 1.5 5.5t0.5 8.5q0 21 -11 27t-26 7t-31 -0.5t-27 4.5q-17 8 -19.5 25t-1.5 34t1 30t-12 15v156q3 1 11 5t10 6l0.5 2t0.5 3t-0.5 3l-0.5 2q-2 2 -10 6t-11 5q0 2 -0.5 12.5t-0.5 13.5q0 2 -0.5 7.5 t0.5 11.5t3.5 11t8.5 6q-6 1 -8.5 6t-3.5 11t-0.5 11.5t0.5 7.5q0 3 0.5 13.5t0.5 12.5q5 1 17 2.5t25 3.5t25 3.5t17 1.5h11h9q4 -1 10.5 -2.5t12.5 -3t10 -3t4 -2.5v-93q15 1 16 -11t1 -19q0 -5 -0.5 -13t-0.5 -9q-1 -2 -6 -10.5t-5 -10.5t4 -6.5t7 -4.5q5 0 20.5 4.5 t20.5 6.5q-14 -1 -18 5t-4 15q0 7 3.5 11.5t8 8t8 7.5t3.5 10t-2 8.5t-4 5.5t-4 8t-2 16q0 13 2.5 24t19.5 16l-26 11v93h-308q-9 0 -23.5 -2.5t-27.5 -8.5t-22.5 -16t-9.5 -25v-221q16 0 29.5 14.5t13.5 28.5q0 4 -0.5 12.5t-0.5 9.5q-1 2 -5.5 5.5t-5.5 5.5q-7 26 -9 49 t-2 49q0 3 0.5 13.5t0.5 12.5q24 8 49 15t51 7q17 0 25.5 -9t12 -21.5t4.5 -27t4 -26.5q0 -2 4.5 -10.5t5.5 -10.5l0.5 -4t0.5 -6q0 -13 -6 -24t-6 -24q0 -1 0.5 -2.5l0.5 -1.5q1 -2 4.5 -6t5.5 -5q0 -4 0.5 -18t0.5 -18q0 -31 -4.5 -60.5t-6.5 -59.5q0 -5 -1.5 -18.5 t-3.5 -28.5t-3.5 -28.5t-2.5 -18.5q-12 -9 -28.5 -11.5t-31.5 -6.5t-25 -13t-10 -32z" />
<glyph unicode="U" d="M158 183q0 -23 4 -46t17 -43q1 -1 5.5 -5t5.5 -5q0 -2 1.5 -8t3 -13t3 -13.5t2.5 -7.5q3 -4 16.5 -12.5t30 -17.5t32 -15.5t20.5 -6.5q9 0 12 5.5t14 5.5h6t4 -1q2 0 5.5 -5t5.5 -5t10.5 5t10.5 5q2 1 9.5 2.5t16.5 3t16.5 3t9.5 2.5l4 5t9 11.5t10 13.5t8 11q9 14 19 36 t12 37q1 6 3 21t3.5 31.5t3 31t1.5 20.5q0 15 0.5 52t0.5 78q0 42 -0.5 79t-0.5 52q-2 4 2 16t8 15q1 1 7.5 2.5t13.5 2.5t13.5 2.5t7.5 2.5q2 3 4.5 9t4.5 12.5t3.5 12.5t1.5 8h-25q-8 -1 -27 -2.5t-40.5 -3t-41 -3t-26.5 -1.5q-3 -2 -11 -10.5t-10 -10.5q0 -1 -0.5 -2.5 t-0.5 -3.5q0 -14 10 -21t23 -12.5t25 -13t16 -20.5q0 -2 1.5 -9.5t3.5 -16.5t3.5 -16.5t1.5 -9.5q1 -2 5.5 -5.5t5.5 -5.5l0.5 -4t0.5 -6q0 -7 -1.5 -12.5t-10.5 -8.5q-5 -28 -6 -55.5t-1.5 -54.5t-3 -54t-9.5 -54q-1 -2 -2.5 -8t-3.5 -13t-3.5 -13.5t-1.5 -7.5l-6 -18 t-4 -13q-2 -2 -10.5 -5.5t-10.5 -5.5q-2 -1 -5.5 -4.5l-5.5 -5.5h-135q-1 0 -8.5 8t-12.5 13q-2 2 -6.5 8t-9.5 12.5t-9.5 12.5t-5.5 8q-7 71 -10 140.5t-3 140.5h-31q0 -14 13 -20v-188q-2 -1 -6 -4.5t-5 -5.5v-5zM117 542q6 -5 15.5 -17t19 -26t17 -28t10.5 -23q1 2 2.5 8 t3 12.5t3 12.5t2.5 9q2 7 6 18.5t4 12.5q9 7 19 8.5t17.5 3.5t12.5 8t5 22h-106q-5 -8 -14 -13t-17 -8z" />
<glyph unicode="V" d="M109 542q0 -3 8.5 -13t20 -21.5t22 -22.5t13.5 -17q10 -15 16 -33t9.5 -37.5t7 -38.5t9.5 -36q1 -2 5.5 -10.5t4.5 -10.5q11 -56 17.5 -109.5t24.5 -108.5q0 -2 3 -8t7 -13t7 -13.5t4 -7.5q0 -2 1.5 -8t3 -13t3 -13.5t2.5 -7.5q2 -3 10.5 -7.5t10.5 -2.5q1 1 4 5.5 t6.5 9.5t6.5 10t4 6q1 2 4.5 5.5l5.5 5.5q1 7 5.5 26.5t9.5 41t9.5 40.5t6.5 27q1 2 5.5 10.5t5.5 10.5v7v13v13v8q1 4 3.5 18.5t6 31t6.5 32t5 22.5q0 3 3 13.5t7 23t7 23t3 13.5q1 4 3 16t3.5 25.5t3 25t1.5 16.5q12 5 26 11.5t26 15.5t20 20t8 26h-153q-2 0 -10 -12 t-11 -19q0 -1 -0.5 -5t-0.5 -6q0 -14 7 -22t15 -14.5t15 -13t7 -16.5q0 -3 -0.5 -9.5t-0.5 -7.5q-1 -1 -5.5 -5t-5.5 -5v-12v-20v-19v-12q0 -1 -5 -5t-5 -5q-9 -32 -14 -58t-17 -56q0 -1 -1.5 -6t-3 -10.5t-3.5 -10t-3 -5.5t-10 -3t-14 -2q-4 0 -10.5 2t-6.5 3l-42 198 q-14 7 -17.5 23.5t-3.5 29.5q0 4 8 12.5t18 19t18 21t8 19.5q0 1 -4.5 5t-5.5 5q-2 2 -5.5 10.5t-4.5 10.5q-4 0 -16 0.5t-16 0.5q-19 0 -32 -6t-30 -6h-6t-4 1q-2 0 -5.5 5t-5.5 5t-7 -1t-10 -2.5t-9 -3.5t-5 -3t-1.5 -4.5t-0.5 -5.5z" />
<glyph unicode="W" d="M360 126q0 -20 3 -36.5t7 -33t7.5 -35t4.5 -41.5q22 6 37 25t25 38q1 9 2.5 33t3 50t3 50t2.5 33v12v9q-1 4 -5 16t-6 15q-9 -4 -11 -11.5t-4 -14.5t-6 -12.5t-16 -5.5q-3 0 -8.5 1t-6.5 2q-2 2 -4 7.5t-3.5 12t-2.5 12.5t0 9q0 -3 -3.5 -12t-7.5 -18.5t-7.5 -17.5 t-3.5 -9q0 -9 6 -12t6 -14v-6t-1 -4q0 -2 -5 -5.5t-5 -5.5q0 -1 -0.5 -12.5t-0.5 -18.5zM156 376q0 -10 1 -35.5t2 -53.5t2 -53t2 -35q0 -3 3.5 -14t7 -23t7 -22.5t3.5 -13.5q1 -7 3 -25t3.5 -37.5t2.5 -37.5t1 -25h32q1 0 3.5 6t5.5 14t6 17l5 15q12 44 13 94.5t8 92.5 q0 3 3.5 12t7 19.5t7 20t3.5 11.5q1 6 3 20.5t3.5 31t3 31.5t1.5 21q1 1 4.5 1.5t5.5 0.5q9 0 15 -7t9.5 -16.5t5.5 -19.5t2 -16q0 -2 0.5 -8t0 -12t-3 -11t-8.5 -6q8 -11 19 -22.5t27 -11.5q0 3 -0.5 12.5t-1.5 20t-1.5 20t-1.5 13.5q0 2 -4 6t-6 4v13q0 10 -0.5 21 t-0.5 20v14q0 22 2 40t5 34.5t5 33t2 37.5q-5 0 -22 -1.5t-22 -3.5q-2 0 -5.5 -5t-5.5 -5l-4 -0.5t-6 -0.5q-11 0 -14.5 6t-11.5 6q-5 0 -5 -1q-2 -1 -5.5 -10t-5.5 -10q-1 -2 -10 -5.5t-11 -5.5l-0.5 -2t-0.5 -3q0 -6 7 -9.5l15 -7.5t15 -10.5t7 -18.5q0 -7 -1.5 -13 t-9.5 -9q-4 -20 -5 -41.5l-2 -43t-4 -42t-10 -39.5q-1 -2 -5.5 -10.5t-5.5 -10.5q-1 -5 -2.5 -17t-3 -25t-3 -25t-1.5 -17h-42l-20 188h-18zM470 428q0 -19 -5 -35t-10.5 -31.5t-10.5 -32t-5 -35.5q20 0 27.5 10.5t9.5 29.5q0 5 1 18.5t1.5 28.5t1 28.5t0.5 18.5h-10z M177 453q-13 0 -19 -9.5t-6 -20.5q0 -1 0.5 -3l0.5 -2q11 7 17.5 14.5t6.5 20.5zM434 537q0 -8 4 -20t10.5 -23t15.5 -19t18 -8q3 0 8.5 1t5.5 2l53 52l0.5 2t0.5 3t-0.5 3l-0.5 2q-2 3 -8 9l-12.5 12.5l-12.5 12.5t-9 8q-4 -10 -13 -16.5t-19.5 -9.5t-21.5 -4t-19 -1v-6z M121 553q-2 0 -5.5 -4t-4.5 -6q0 -3 -1 -9t-1.5 -12.5t-1 -12.5t-0.5 -8h70q0 7 -6 16t-14.5 17t-18 13.5t-17.5 5.5z" />
<glyph unicode="X" d="M358 -10q6 0 21 -1.5t31.5 -3t31.5 -3.5t21 -3q4 0 15.5 -4t15.5 -6h-11q3 1 9 4t12.5 6t12.5 6t8 5t6.5 5.5t4.5 4.5v73q-45 7 -68.5 32t-40.5 54.5t-33 55.5t-46 35q0 3 -0.5 9t-1 12.5t-0.5 12.5v8v11t0.5 13.5t1 11.5t0.5 6q0 2 5 8t10.5 13t10 12.5t5.5 7.5t4 11.5 t6.5 20t6.5 20t4 11.5t5.5 8t9.5 13t10 13t6 8q2 2 5.5 10.5t5.5 10.5q3 1 10.5 2t15.5 2.5t15.5 5t10.5 10.5q-2 3 -10 11t-11 10q-2 2 -10.5 5.5t-10.5 5.5q-1 1 -5 10t-5 10q0 1 -2 1h-3q-8 0 -18.5 -9.5t-18.5 -11.5q-2 -1 -8 -2.5t-13 -3t-13.5 -3t-7.5 -2.5 q-8 -5 -9.5 -25t-5 -43t-13.5 -41t-35 -18q-17 0 -28.5 8t-20 19.5t-16.5 24.5t-18 23q-1 2 -10 5.5t-10 5.5q-2 2 2 8.5t4 8.5q9 0 13.5 -1.5t7.5 -3t7.5 -2.5t13.5 -1q25 0 25 27v5q-3 1 -10.5 3t-15.5 3.5l-16 3t-11 1.5q-4 0 -14.5 -1.5t-22 -3t-21.5 -3.5t-14 -3 q-1 -1 -1 -5v-3t1 -2q0 -2 4.5 -5.5t5.5 -5.5l4 -8t6.5 -12.5t6.5 -13t4 -7.5q1 -2 5.5 -5.5t4.5 -5.5q1 -2 2.5 -8t3 -13t3 -13t2.5 -7q1 -2 10 -5.5t10 -5.5q1 -1 2.5 -7t3 -13.5t3 -14t2.5 -7.5q1 -2 7.5 -7.5t13.5 -12.5t13.5 -13t7.5 -8q0 -1 0.5 -10t0.5 -14 q0 -21 -9 -39t-21 -35t-24.5 -34t-19.5 -35q-5 -12 -6.5 -21.5t-4 -18t-7 -16.5t-14.5 -17q-1 -1 -7 -4t-13.5 -6.5t-13.5 -6.5t-7 -4t-4 -5.5t-6.5 -9.5t-6.5 -10t-4 -6q-7 -7 -11.5 -8t-7 -1.5t-3.5 -2t-1 -9.5q0 -5 4.5 -10.5t10.5 -10t12.5 -8t10.5 -3.5q2 0 3.5 0.5 t2.5 0.5q2 1 5.5 4.5t4.5 5.5l104 21q-2 18 -2.5 38.5t2 40.5t10 37.5t22.5 29.5q14 12 20.5 17t20.5 5q12 0 15.5 -4t3.5 -11q0 -6 -0.5 -13.5t2.5 -14.5q2 -3 10 -7t11 -3v-104q-3 -1 -11 -5t-10 -6l-0.5 -2t-0.5 -3q0 -5 4 -8t9.5 -5.5t10.5 -5.5t8 -7z" />
<glyph unicode="Y" d="M225 21l31 -31h-10l21 10q7 0 24.5 -0.5t37.5 -0.5t37.5 0.5t24.5 0.5q3 0 10.5 1.5t16 3t15.5 3.5t10 3q1 2 1.5 10t0.5 11q0 19 -9 24.5t-21 7t-24.5 4t-19.5 16.5q-14 26 -13 49t1 55q0 39 5.5 69t15.5 57t23.5 53.5t29.5 59.5q5 11 15 21t16 20q1 1 4 7.5t6 14 t6 13.5t5 7t10 3.5t17 4.5t17 3.5t10 1.5q0 11 -5.5 20t-14.5 16t-19.5 10.5t-19.5 3.5h-3t-2 -1q-2 0 -10.5 -4.5t-10.5 -5.5t-11.5 -2.5t-20 -3t-20 -2.5t-11.5 -2t-10 -9t-10 -12q-1 -1 -1 -3v-3q0 -4 1 -5q3 -2 15 -6t16 -4q0 -3 0.5 -13t0.5 -13q0 -8 -6 -29.5 t-15.5 -44t-20.5 -40.5t-21 -18q-15 0 -26.5 12t-20 28t-15 32t-11.5 24q-2 1 -11 4.5t-10 5.5q-1 0 -1.5 4t-0.5 6q0 5 7 12t15.5 16.5t15.5 23t7 32.5h-116q-3 -6 -11 -11t-16 -9.5t-15 -7.5t-10 -4v-1q24 0 42 -9t31 -31q1 -2 2 -8t2.5 -13t3 -13.5t2.5 -7.5q1 -2 7.5 -8 t13.5 -12.5t13.5 -12.5t7.5 -8t2.5 -8t3 -13t3 -13.5t1.5 -7.5q6 -17 18.5 -38t23.5 -35v-218q-3 0 -9 -1t-12.5 -3t-12.5 -4t-8 -3t-5.5 -10t-4.5 -10q-2 -2 -10 -6t-11 -5z" />
<glyph unicode="Z" d="M296 0l10 -10h84q1 6 5.5 8.5t10.5 3t12 0t8 -0.5q13 0 18.5 -2t8.5 -4t5.5 -4t9.5 -2q1 0 3 0.5l2 0.5q1 1 3.5 5t6 9t6.5 9.5l5 7.5l5.5 11t7 13.5t6 11.5t2.5 6v146l-21 21q-20 -9 -30.5 -36.5t-18 -57t-15 -52.5t-19.5 -23q-2 0 -6 0.5t-5 1.5q-2 1 -5 10.5t-5 10.5 h-8h-13h-14h-7q-2 0 -5.5 5t-4.5 5q-2 0 -13.5 0.5t-18.5 0.5q-3 0 -15 -0.5t-16 -0.5q7 -2 9 -5.5t1.5 -7.5t-2 -9t-1.5 -9h-35q0 2 -0.5 8t-1.5 12.5t-1 12.5v9q0 1 1 5t2.5 9t3.5 9.5t3 7.5q2 4 6.5 14.5t9 22t9 22t6.5 14.5q10 0 16.5 6t11 14.5t8 17t6.5 14.5 q18 31 42 57t41 57q8 13 13.5 25.5t12 24t15 22.5t22.5 22v84h-104l-11 20l-10 -20h-83v10q-10 -8 -25 -10t-29 -3t-25.5 -4.5t-14.5 -13.5q-1 -2 -2.5 -9.5t-3 -16.5t-3 -16.5t-2.5 -9.5q0 -2 -2 -8t-3.5 -13t-3 -13.5t-1.5 -7.5q0 -5 -0.5 -18t-1 -27t-1 -27t-0.5 -18 q19 0 27 11.5t11 27.5t3 33t4 28q3 9 13 16t22 12t22.5 8.5t15.5 5.5q1 1 5 5.5t5 4.5q0 1 4 1h6q11 0 14.5 -6t11.5 -6q6 0 9.5 2t6.5 4t7.5 4t12.5 2h13t9 -1q7 -1 19 -4.5t12 -5.5v-62q-12 1 -17 -5.5t-7.5 -15.5t-3 -18t-3.5 -14q-1 -2 -10.5 -5t-10.5 -5 q-1 -1 -3.5 -7.5t-6 -15l-7 -17t-4.5 -12.5q0 -2 -1.5 -8t-3 -13.5t-3 -13.5t-2.5 -7t-7 -2.5t-13.5 -3t-14 -2.5t-7.5 -2q-2 -1 -5.5 -10t-4.5 -11q-15 -22 -32 -41.5t-31 -41.5l-4 -8l-6.5 -13t-6.5 -13.5t-4 -7.5l-10 -15t-11 -16q0 -1 -5 -5t-5 -6q0 -1 -0.5 -13 t-0.5 -18q0 -4 0.5 -15.5t0.5 -15.5q74 -15 146 -11z" />
<glyph unicode="_" horiz-adv-x="648" d="M176 -115q7 -1 26.5 -2.5t41 -3t40.5 -3t27 -1.5h12t24.5 -0.5t26.5 -0.5h22q42 0 78 0.5t76 10.5q11 3 22 13.5t11 22.5q0 20 -11.5 27.5t-31.5 9.5q-2 0 -20.5 1.5t-43 3t-50.5 3.5t-42 3h-5q-65 0 -141.5 -4.5t-145.5 -16.5q-10 -2 -10.5 -11t-0.5 -16q0 -12 10.5 -22 t21.5 -14q6 -2 16 -2.5l10 -0.5v43l10 1.5t16 0.5q17 -3 25 -4.5t8 -15.5q0 -10 -4.5 -16.5t-17.5 -5.5zM249 -83h20v-21h-20v21zM488 -83h21v-21h-21v21z" />
<glyph unicode="a" horiz-adv-x="648" d="M87 130q0 -7 2.5 -23.5t7 -34t10 -32.5t12.5 -19q3 -2 10.5 -3t16 -2.5t15.5 -5t10 -10.5h146q5 3 17 8.5t26 11t26.5 9t18.5 3.5q25 0 46.5 -6t47.5 -6h9q7 0 14.5 0.5t13.5 0.5h10q1 3 2.5 10.5t3 15.5t3 15.5t2.5 10.5v5v5q-3 0 -10.5 1.5t-16 3t-15.5 3.5t-10 3 q-2 0 -6 4t-5 6q0 1 -1.5 7.5t-3.5 13.5t-3.5 13t-1.5 8q-1 1 -5.5 5t-5.5 5v11q0 14 6 19.5t6 22.5v8q0 6 -1 11.5t-5 8.5t-11 2v125q-12 3 -22.5 9.5t-20.5 13t-21 12t-24 7.5h-8h-13h-14h-7q-2 1 -10.5 10.5t-10.5 10.5l-6 0.5t-9 0.5q-8 0 -12.5 -2t-8.5 -4t-8.5 -4 t-12.5 -2q-7 0 -10.5 1.5t-6.5 4t-6 4t-8 1.5q-11 0 -26 -10t-29 -23.5t-24 -29t-10 -25.5v-6q2 -11 2.5 -22t3.5 -20t9.5 -15t20.5 -6q23 0 35.5 7t19.5 17.5t10.5 23t9 23t14.5 17.5t26 7h9t7 -1q1 0 5.5 -1.5t10 -3t10 -3.5t5.5 -2q2 0 9.5 -1.5t16.5 -3t16.5 -3 t9.5 -2.5q1 -1 2.5 -7.5t2.5 -13.5t2.5 -13.5t2.5 -7.5q2 -2 8 -4t12.5 -4t12.5 -2.5t9 0.5v-21q-5 -1 -21 -5t-21 -6q-1 0 -5 -5t-5 -5h-6h-10h-10h-5q-2 -1 -10.5 -5.5t-10.5 -5.5q-1 0 -7.5 -0.5t-9.5 -0.5t-8.5 0.5l-5.5 0.5q-3 2 -7.5 10t-3.5 11q-2 -2 -10 -5.5 t-11 -4.5q-9 -2 -31 -6.5t-46.5 -9.5t-47 -9.5t-31.5 -5.5q-1 -3 -4 -10t-7 -15.5t-9 -16t-11 -10.5q0 -5 -0.5 -18.5t-0.5 -18.5zM171 114v11q2 6 5 16t6.5 19t6 15.5t3.5 6.5h104q3 17 21 22t32 5q2 0 5.5 -0.5t4.5 -0.5t5 -4.5t5 -5.5t7.5 -4t14 -6t13.5 -6.5t7 -4.5 t2 -11t1 -15t-1 -15t-2 -11q-1 -2 -7 -3.5t-13.5 -3t-14 -2.5t-7.5 -1l-4 -4t-6.5 -7t-6.5 -7t-4 -3q-2 -1 -11.5 -2.5t-20 -3t-19.5 -3t-11 -2.5q-2 0 -6 -4t-5 -6h-83q-5 12 -13 20.5t-8 20.5z" />
<glyph unicode="b" d="M276 22q17 0 34 -14.5t27 -27.5l11 26h83q2 11 8.5 14.5t14 5t15.5 4.5t14 12q2 3 4 12t4 19t2.5 19t-0.5 13l21 10q0 3 -0.5 10.5t-0.5 15.5t0.5 15.5t0.5 10.5q0 2 5 5.5t6 5.5v19q0 13 -1.5 30.5t-4.5 35t-7 33.5t-8 27q0 1 -3.5 4t-7 6.5t-7 6.5t-3.5 4 q-1 1 -2.5 7.5t-3 13.5t-2.5 13t-2 8q-1 1 -5.5 2.5t-10 3t-10.5 3t-6 1.5q-1 1 -5.5 4t-9.5 7t-10 7t-6 3t-11.5 0.5t-16.5 0.5q-27 0 -53.5 -2t-53.5 -9q-2 -1 -5.5 -5.5t-5.5 -5.5q-5 -2 -15.5 1l-10.5 3v38h-26q-1 0 -3 -7t-3.5 -17t-2.5 -21t-1 -18q0 -2 1.5 -8 t3.5 -12.5t3.5 -13t1.5 -7.5t0.5 -7.5t0.5 -14.5v-17v-13q0 -46 -6.5 -87t-6.5 -88q0 -5 0.5 -14t0.5 -18t0.5 -15.5l0.5 -6.5l31 -42q13 6 22 8.5t21 2.5zM232 177q0 2 0.5 6.5l0.5 4.5q1 1 5.5 5t5.5 6v9v16v17v10q0 1 5 5t5 5q1 2 2 9.5t2.5 16.5t3 16.5t2.5 9.5 q2 2 11 5.5t10 4.5q2 2 5.5 10.5t5.5 10.5q6 10 17 14.5t23.5 6t25.5 1.5h24q3 0 8.5 -0.5l5.5 -0.5q2 -1 5 -10.5t5 -10.5q1 -1 7.5 -2t14 -2.5t13.5 -3t7 -2.5q4 -5 5 -14t2.5 -18t6.5 -15.5t17 -4.5v-167q-20 -6 -36.5 -15t-33 -17.5t-33.5 -14.5t-38 -6q-24 0 -46 15 t-32 38q0 1 -1.5 7.5t-3 13.5t-3 13t-2.5 8t-10 5t-11 5q0 1 -0.5 4.5t-0.5 5.5zM210 537q0 -6 0.5 -16.5t2.5 -21t7.5 -18t14.5 -7.5q0 6 -0.5 16.5t-2.5 21t-7 18t-15 7.5zM98 563q3 0 10.5 -1.5t15.5 -3t15.5 -3.5t10.5 -3q1 0 5 -5t5 -5q3 0 9.5 -1t14 -1.5t14 -1 t8.5 -0.5q0 10 -5 14.5t-11 7.5t-12 7.5t-7 15.5q-4 1 -16 1h-15q-5 0 -12 0.5t-14 -0.5t-12 -4.5t-5 -11.5q0 -1 0.5 -3zM223 573q1 5 -6 5q-6 0 -5 -5q2 -5 5 -5q4 0 6 5z" />
<glyph unicode="c" horiz-adv-x="648" d="M131 1q0 -26 11 -41t28 -22.5t38.5 -9t42.5 -1.5q3 0 13 0.5t13 0.5q-3 0 -9 1t-12.5 2.5t-12.5 3.5t-8 3q-2 2 -10.5 11t-10.5 10q-11 7 -22 11.5t-21.5 10t-20.5 12.5t-19 18v-10zM412 -10q-2 -1 -10.5 -4.5t-10.5 -5.5q-1 -1 -5 -5.5t-5 -4.5q-5 -2 -14 -3t-18 -3.5 t-15 -8.5t-5 -17h10h11l17.5 7.5t20.5 10t17 9.5t7 5v20zM329 1q0 -2 4 -6.5t6 -4.5t10.5 5t10.5 6q12 5 24 6.5t23.5 3t23 3.5t23.5 8q6 3 16.5 7.5t20 9.5t17 9t8.5 5q8 8 9.5 29t1.5 34q0 15 -1.5 25.5t-9.5 25.5q-2 -11 -4.5 -15t-6 -5.5t-8.5 -3t-12 -7.5l-8 -8 l-13 -13l-13 -13t-8 -7q-1 -1 -7 -2.5t-13.5 -3t-13.5 -3t-7 -2.5q-2 -1 -10.5 -10.5t-10.5 -10.5q-1 0 -9 -0.5t-12 -0.5t-12 0.5t-9 0.5q-2 1 -10.5 10.5t-10.5 10.5q-1 1 -5.5 2.5t-9.5 3l-10 3t-6 2.5q-15 7 -32 20.5t-30.5 30.5t-22.5 36t-9 38q0 10 5.5 13.5t5.5 11.5 q0 11 -5.5 19t-5.5 19t3.5 17t17.5 13q-2 1 -10 1.5t-11 0.5q-12 0 -17 -3t-7.5 -8t-5.5 -10.5t-11 -11.5v-125q3 -1 7.5 -5t9.5 -9t9 -9.5t5 -7.5q1 -2 1 -10q0 -7 -0.5 -16t-0.5 -17v-9t6 -10.5t13.5 -17.5t14 -16.5t8.5 -7.5zM391 261q-2 2 -3.5 -5t-1.5 -16t1.5 -16 t3.5 -5q3 3 4 9t1 12q0 7 -1 13t-4 8zM277 305v-13l4.5 -1.5t11.5 -3t13.5 -3t11.5 -2.5q3 0 9 -0.5t12.5 -1t12.5 -1t8 -0.5v13q0 1 -6 2.5t-14 3t-17 3l-15 2.5q-4 0 -16 1t-15 1zM422 308q0 -11 14 -19t23 -8q1 0 3 0.5l2 0.5q1 1 5 5.5t6 4.5q18 13 24.5 23.5t6.5 34.5 q0 26 -14.5 43t-35.5 27.5t-45.5 14.5t-45.5 4q-3 0 -9 -0.5l-6 -0.5q-2 0 -10.5 -5t-10.5 -5q-2 -1 -9.5 -2.5t-16.5 -3t-16.5 -3t-9.5 -2.5q-1 0 -4 -3t-6.5 -7t-6.5 -7l-4 -4q-8 -5 -17.5 -7.5t-18 -6.5t-14 -11t-5.5 -20q4 0 15 0.5t23 1t23 1.5t15 1q7 1 12 4t9 7 t8.5 7t11.5 3h11q6 -1 20.5 -4t31 -6.5t31.5 -6.5t21 -4q8 -3 9.5 -9t1.5 -13t-3.5 -9.5t-7.5 -4t-7.5 -3.5t-3.5 -8z" />
<glyph unicode="d" horiz-adv-x="648" d="M191 10l115 -10q5 19 18 20.5t27 1.5q27 0 46.5 -6.5t48.5 -6.5h9q7 0 14.5 0.5t13.5 0.5h10q0 3 4 11t7 10q2 2 10 -2t10 -4v-28q2 0 5.5 1t5.5 2q5 3 12.5 11t8.5 10q0 3 -1 10.5t-2.5 16t-4 15.5t-3.5 10q-12 -1 -27.5 -0.5t-30.5 5t-27.5 13.5t-18.5 24 q-1 12 -2.5 43t-3 65.5t-3 66t-1.5 43.5q0 6 -0.5 22.5t-0.5 34.5t0.5 34.5t0.5 23.5q-9 2 -10.5 8t-1.5 12q0 7 2 11.5t4.5 8t4.5 8.5t2 14q0 10 -2 16t-5.5 10.5t-7.5 10t-7 15.5h-52q5 -14 17 -26t14 -26v-6t0.5 -11.5t0.5 -13.5v-11q0 -5 -0.5 -20.5t-0.5 -20.5 q-2 -1 -8 -3t-12.5 -3.5t-12.5 -3t-9 -1.5q-7 0 -24.5 -0.5t-37.5 -0.5t-37.5 0.5t-24.5 0.5l-5.5 -5.5t-5.5 -4.5l-8 -4l-13 -6.5t-13.5 -6.5t-7.5 -4t-4 -7t-6.5 -13.5t-6 -13.5t-3.5 -7q-1 -2 -5.5 -6t-5.5 -5q-3 -8 -8.5 -21.5t-10.5 -26.5t-8.5 -23.5t-3.5 -11.5v-177 q8 7 15.5 9t17.5 2q3 0 10.5 -9t15.5 -21t15 -24.5t9 -19.5zM149 186q0 2 0.5 6.5t0.5 5.5q0 4 1.5 16t3 25.5t3 25t2.5 16.5q6 3 10 10.5t6 15.5t3 15.5t2 10.5q2 7 6 19l4 12h104q1 -10 4 -14.5t7 -6.5t9 -3.5t12 -6.5l10 -10t10 -11q8 -11 16 -19.5t14 -17.5t9.5 -19.5 t3.5 -26.5q0 -21 -8.5 -44.5t-23.5 -38.5q-6 -6 -16 -13t-20 -15.5t-18 -17t-9 -17.5h-72q-2 3 -10.5 11t-10.5 10q-2 1 -11 5t-10 6q-1 1 -2.5 5.5t-3 9.5l-3 10t-2.5 6q-5 11 -13 18.5t-8 21.5zM306 593v-20h41v10z" />
<glyph unicode="e" d="M97 243q0 -38 17 -68t47 -50q2 -1 5.5 -5t4.5 -5q2 -4 7 -14.5t11 -22.5t12.5 -22t11.5 -14q38 -29 78.5 -35.5t87.5 -6.5q22 0 48 8t47.5 23t36 36.5t14.5 47.5q0 18 -9 20t-22 2q-18 0 -25 -5.5t-10.5 -12.5t-6 -14t-10.5 -11q-2 -1 -9.5 -2.5t-16.5 -3t-16.5 -3 t-9.5 -2.5q-2 0 -5.5 -5t-5.5 -5l-4 -0.5t-6 -0.5q-17 0 -36.5 9.5t-36.5 12.5q21 2 40 14.5t33 26.5q-3 1 -13 1h-13q-12 0 -19 -2t-12.5 -4t-12.5 -4t-19 -2q-3 0 -13 0.5t-13 0.5q-8 9 -9.5 18t-1.5 20q0 10 4 14t9.5 7t10.5 6.5t8 12.5h229q2 0 6.5 4t9.5 10t9.5 12.5 t6.5 10.5l0.5 7.5t0.5 11.5q0 15 -4.5 32.5t-12 34.5t-17 32.5t-20.5 26.5q-1 2 -10 5.5t-10 5.5q-2 2 -6 10t-5 11h-146q-2 -9 -8 -10t-12 -1q-11 0 -14.5 6t-12.5 6q-1 0 -3 -0.5l-2 -0.5q-1 -2 -5 -10.5t-5 -10.5q-12 -12 -23 -18t-19 -12.5t-13 -17t-5 -32.5 q-2 0 -11.5 -2t-11.5 -1q-2 0 -6 4.5t-5 5.5q-3 2 -13 5.5t-13 4.5v73q-5 -38 -16 -80.5t-11 -82.5zM400 188q-3 -2 -11 -10.5t-10 -10.5v-6v-5q14 -1 18.5 5.5t4.5 15.5q0 2 -0.5 5.5t-1.5 5.5zM128 234q0 5 0.5 18.5t0.5 18.5q9 3 15 7.5t11.5 8t11.5 6t17 2.5 q0 -12 -2.5 -33.5t-10.5 -32.5q-1 -2 -10 -5.5t-11 -4.5v-5q0 -11 5.5 -18.5t5.5 -18.5v-10q-14 2 -20.5 9t-9.5 17t-3 21v20zM238 297h152l4 4t9 10l10 12t8 10q2 2 5.5 10.5t4.5 10.5q3 -4 8 -10.5t10.5 -13.5t9.5 -14.5t4 -13.5v-10q-5 0 -14 -1t-18 -4.5t-15 -10 t-5 -16.5h-136q-4 6 -10.5 9.5t-12.5 6.5t-10 7.5t-4 13.5zM354 376q12 0 24.5 -3.5t12.5 -18.5q0 -1 -0.5 -5t-0.5 -5q-5 0 -14 -1t-18 -4.5t-15 -9.5t-5 -16h-100q0 15 14 27t33 20t38.5 12t30.5 4zM411 375q8 0 8 -11q0 -10 -8 -10t-8 10q0 11 8 11zM338 469q1 2 -4 3 t-12 1t-12.5 -1t-3.5 -3q4 -5 16 -5t16 5z" />
<glyph unicode="f" d="M119 42q2 -14 8 -28.5t23 -14.5q12 0 20.5 6t20.5 6q32 0 62.5 -6t63.5 -6h12t19 0.5t19 0.5h12q15 -2 19.5 6.5t6 19.5t4 21.5t12.5 14.5q-4 2 -16 6l-15 5q-2 0 -10 1.5t-17 3.5t-16.5 3.5t-9.5 1.5q-5 1 -11.5 4.5t-13.5 7t-11.5 6t-4.5 3.5v92q38 0 76 -4.5t76 -4.5 h10t12 1.5t10 4.5t4 9q0 2 -0.5 4l-0.5 2q-1 2 -4.5 6t-5.5 4q-2 1 -9.5 2.5t-16.5 3t-16.5 3t-9.5 2.5q-5 1 -12 4.5l-14 7t-11.5 6t-4.5 3.5v114q12 5 22 11t10 20q0 13 -14 21t-33 14t-38.5 9.5t-29.5 7.5q-1 3 -1.5 13t-0.5 13q0 14 4.5 22.5t10.5 16t11 16.5t7 23 q2 -1 8 -3t12.5 -3.5t12.5 -2.5t9 -1q2 0 10.5 5t10.5 5q1 1 9.5 1.5t13.5 0.5q17 0 25 -11.5t14.5 -26t15.5 -26t29 -11.5h9t12 1t11 3.5t6 6.5q1 6 -4 21.5t-13.5 32.5t-18 31.5t-16.5 18.5q-4 -1 -14.5 -1.5t-22.5 -0.5q-11 0 -21.5 0.5t-14.5 1.5q-2 0 -8 3.5t-12.5 7.5 t-13 7t-7.5 3t-4 -3t-6.5 -7t-6.5 -7l-4 -4l-8 -4l-13 -6.5t-13.5 -6.5t-7.5 -4q-2 -1 -5.5 -4.5t-4.5 -5.5q-1 -1 -2.5 -6l-3 -10t-3 -9.5t-2.5 -5.5q-1 -2 -10 -5.5t-10 -5.5l-3 -6.5t-6 -14.5t-6.5 -17t-5.5 -14q-5 -14 -10 -22.5t-11.5 -14t-16.5 -8.5t-25 -7 q-3 -1 -10 -2.5t-15.5 -3t-16 -3t-10.5 -1.5v-5v-6q2 -2 5.5 -10t5.5 -10q25 -4 52 -8.5t52 -12.5v-52v-52q0 -8 -1.5 -29t-3 -44t-3.5 -44t-3 -29q-4 -7 -19.5 -17.5t-34 -20.5t-35.5 -17t-25 -7zM326 365h6t11 -0.5t10.5 -3t4.5 -7.5v-104q0 -2 -8 -10.5t-13 -10.5 q-2 -1 -7.5 -3t-12.5 -3.5t-13 -3t-8 -1.5v125q0 19 9 20.5t21 1.5zM598 687q-5 1 -5 -6q0 -6 5 -5q5 2 5 5q0 4 -5 6zM566 728q0 -13 5.5 -24t20.5 -11q0 14 -6 26t-20 20v-11z" />
<glyph unicode="g" d="M281 -135v-33q14 0 19 11t5 22h-24zM354 -124q-6 -2 -9 -8t-4 -13.5t-1 -13.5v-9q25 0 25 23q0 7 -1.5 12.5t-9.5 8.5zM406 -156v-10h11v10h-11zM192 -124q0 -8 5.5 -12t13 -6.5t15.5 -3t13 -0.5v22h-47zM532 -52q0 -12 -5.5 -20t-14 -13.5t-17.5 -9.5t-16 -8 q-5 -3 -12 -8t-13.5 -10t-11.5 -9t-5 -5v-13q42 0 68 11.5t47 43.5q1 2 4.5 5.5t5.5 4.5v73h-43q0 -12 6.5 -21t6.5 -21zM135 -93v-21h42v21h-42zM101 -20q0 -5 0.5 -16.5t2.5 -23t7 -20t14 -8.5v68h-24zM456 45q0 -26 17.5 -36.5t40.5 -10.5q0 26 -17 36.5t-41 10.5z M198 58v-30q16 0 32 4t31 8.5t30.5 8.5t31.5 4q9 0 12.5 -2l7 -4t9 -4t17.5 -2q13 0 25 0.5t23 11.5q-17 1 -27 4.5t-18.5 7.5t-17.5 7t-22 3h-9q-5 0 -10 -1t-8.5 -5t-2.5 -11h-104zM156 74v-11h31q-2 8 -8 9.5t-12 1.5h-11zM135 105v-11h11v11h-11zM156 199v-21l115 10 q2 8 8 9.5t13 1.5q11 0 15 -6t16 -6q11 0 15.5 6t15.5 6t14 -5.5t12 -5.5h5q2 1 5.5 5.5t5.5 5.5t10.5 4.5t10.5 5.5q4 6 5.5 13.5t3 14t6 10.5t16.5 4q-3 10 -11.5 10.5t-15.5 0.5q-3 0 -9 -0.5l-6 -0.5q-2 -1 -5 -10t-5 -11q-12 -9 -28 -10t-30 -1q-7 0 -21.5 3.5 t-29.5 9.5t-26 13.5t-11 16.5v114q2 -1 7 0t10 2.5t9 4t5 4.5q1 0 2 8t1 12q0 3 -1 11t-2 10q0 -11 -6 -17t-14.5 -9.5t-17 -6t-14.5 -8.5q-1 -1 -2.5 -6l-3 -10l-3 -10t-1.5 -6l-4 -4t-7 -6.5t-7 -6.5t-3 -4l-0.5 -1.5t-0.5 -2.5q0 -11 6 -19t6 -19q0 -10 -6 -13.5 t-6 -11.5t2 -9t4.5 -3.5t4.5 -9t2 -24.5q0 -5 -0.5 -13.5t-1.5 -8.5q-2 -3 -9.5 -5.5t-15.5 -4t-16 -2t-11 1.5zM395 402q0 -6 7 -22.5t17 -34t19.5 -31t14.5 -13.5t5 2l31 73q1 0 4 0.5t5 0.5q9 0 18.5 -7t18 -15t14.5 -15t8 -7q1 0 3 0.5l2 0.5q1 3 4 10.5t6 16t6 15.5 t5 10q1 2 5 5.5t6 5.5q-7 12 -19 13t-23 7q-2 2 -10.5 11t-10.5 10l-2 0.5t-3 0.5q-5 0 -14.5 -5t-20.5 -11.5t-24 -11.5t-25 -5q-13 0 -21.5 3t-14.5 19q-2 -2 -5.5 -10.5t-4.5 -10.5l-0.5 -2t-0.5 -3zM354 438l-10 -21h10v21z" />
<glyph unicode="h" horiz-adv-x="648" d="M121 21q1 -3 5 -11t6 -10h4q16 0 28 3.5t20.5 7.5t15.5 7.5t15 3.5q7 0 11 -3.5t7.5 -8t7.5 -8t10 -3.5q17 0 22.5 8t7 19t4 21.5t13.5 15.5l-73 20q-2 22 -11.5 35t-9.5 28q0 11 6 15.5t6 16.5q0 14 -11.5 24t-25.5 10v-129q-4 1 -14 -3t-12 -7q-3 -5 -4 -14t-3.5 -18 t-7.5 -15t-17 -5zM402 36v-6t0.5 -8.5t3 -8t7.5 -3.5h125l42 21l0.5 2t0.5 3q0 10 -8 19t-18.5 17.5t-21.5 16.5t-16 15q-1 9 -2.5 33t-3 50.5t-3 50.5t-1.5 33q-2 25 -0.5 47.5t-10.5 46.5q-4 8 -18.5 19t-31.5 20.5t-33.5 16t-25.5 6.5h-5q-2 -1 -10.5 -5.5t-10.5 -4.5 q-2 -1 -9.5 -2.5t-16.5 -3t-17 -3t-9 -2.5q-2 -1 -4.5 -7t-6 -13.5t-6.5 -13.5t-4 -7t-7.5 -2.5t-15 -3.5t-16.5 -3.5t-13 -1.5q-3 0 -10.5 -0.5t-16.5 -1t-17 -0.5h-10q0 -8 3.5 -15.5t8 -14.5t8.5 -14.5t4 -16.5q0 -11 -4.5 -17.5t-17.5 -13.5q3 -8 8.5 -9.5t12.5 -1.5 t13.5 4.5t11.5 11.5t9 14t7 13q1 1 4 7.5t6 13.5t6 13t5 7t11 3t20 3.5t20.5 2.5t11.5 2t10 10t10 11q4 3 12.5 6.5t18 6.5t18.5 5.5t15 2.5q10 0 15 -6.5t8 -15t6.5 -17.5t11.5 -14v-250q-21 -8 -37 -16t-16 -31zM184 406v-10h31v10h-31zM184 490v-32h31v32h-31zM90 573 q18 -2 33 -9.5t30 -15.5t30 -14.5t32 -6.5v46l-6 1.5t-14 3t-17 3l-15 2.5q-1 0 -7 0.5t-9 0.5q-17 0 -27.5 -2t-29.5 -9z" />
<glyph unicode="i" d="M447 1q0 -27 -12.5 -39.5t-28 -19.5t-28 -13.5t-12.5 -21.5h144l10 21l63 15h-94q0 3 -1.5 9.5t-3 14t-3.5 14t-3 9.5q0 2 -4 6t-6 5q6 1 8.5 7t3 13t0 13t-0.5 8q0 5 -2 14.5t-4.5 19.5t-4 18t-0.5 11q-11 -11 -28 -11h-29h-37q0 3 -1 10.5t-3 16t-6.5 16t-10.5 10.5 q-8 62 -10 124.5t0 124.5q0 17 -14.5 24.5t-27.5 7.5q-11 0 -17.5 -3.5t-11 -7.5t-9.5 -7.5t-14 -3.5t-15 5t-12 11.5t-13 11.5t-17 5q-15 0 -21 -12.5t-6 -23.5v-8q0 -5 1 -10.5t3 -10t7 -4.5h115v-223q0 -23 -9.5 -36.5t-24.5 -21t-33.5 -11t-36.5 -4.5q-1 -2 -1.5 -8 t-0.5 -8q0 -3 0.5 -9t1.5 -7q1 -2 10 -5t11 -5q1 -2 4.5 -10.5t5.5 -10.5q4 -2 16 -6.5t15 -3.5l146 10q-1 14 5.5 18.5t15.5 4.5q3 0 8.5 -4.5t10.5 -10.5t8.5 -11.5t3.5 -6.5zM426 272q9 -6 15 -17t9.5 -23t5 -23.5t2.5 -20.5v31q0 6 0.5 15t-1 18t-6 15t-14.5 6 q-2 0 -5.5 -0.5t-5.5 -0.5zM404 428q0 -14 9.5 -23t22.5 -9q8 0 15 3t7 13q0 12 -9 24.5t-23 12.5t-18 -5.5t-4 -15.5zM239 553q0 -12 5.5 -23t14.5 -20t20 -14.5t22 -5.5q25 0 34 12.5t9 34.5q0 29 -11 43.5t-42 14.5q-21 0 -36.5 -8t-15.5 -34z" />
<glyph unicode="j" d="M105 -52q0 -5 0.5 -12.5t0.5 -8.5t5 -5t5 -5q1 -2 2.5 -9.5t3 -16.5t3 -16.5t2.5 -9.5q1 -5 7 -9t13 -6.5t13 -4t8 -1.5q3 -1 12 -2.5t19.5 -3t20 -3t11.5 -2.5q2 0 10.5 -4.5t10.5 -5.5l4 -0.5t6 -0.5q9 0 28.5 5.5t39.5 14t36.5 17.5t20.5 16q1 1 2.5 5.5t3 10t3 10 t2.5 5.5q0 1 3 4t7 6.5t7 6.5t3 4q14 19 14.5 39.5t6.5 43.5q1 2 5.5 5.5t5.5 5.5v15v16q-1 1 -6 5t-5 5q0 3 -1 10.5t-1.5 16t-1 16t-0.5 10.5h-48q0 -7 -1.5 -23.5t-3 -34.5t-3 -34.5t-2.5 -22.5q-1 -4 -2.5 -10.5l-3 -13t-3 -12t-2.5 -6.5q-2 -2 -11 -9.5t-19.5 -16.5 t-20 -16.5t-11.5 -9.5q-2 -1 -5.5 -4.5l-5.5 -5.5h-90q0 4 -2 15.5t-1 15.5q3 13 11.5 19.5t17.5 12t16.5 13.5t7.5 23q0 1 -0.5 3l-0.5 2q-2 2 -10.5 5.5t-10.5 4.5q-8 7 -11.5 15t-8 14t-11.5 10t-20 4q-21 0 -31.5 -5.5t-15.5 -15.5t-8 -23.5t-9 -29.5q0 -1 -5 -5t-5 -5 t-0.5 -9t-0.5 -12zM387 219q1 -7 3.5 -18t6 -21t6.5 -17t5 -7h46q0 5 -1.5 21t-2.5 21q-1 1 -5.5 5t-5.5 5v10v11q1 2 6 10.5t5 10.5t-4.5 6t-6.5 4v115l11 10q-2 3 -13.5 10t-26 14t-27.5 12.5t-17 5.5h-8t-16 0.5t-18 0.5h-15h-12q-8 0 -17 -0.5t-17 -0.5h-11 q-8 -6 -14.5 -16t-6.5 -21v-5q19 -8 43 -7.5t47 0t43.5 -6.5t33.5 -27v-42v-42q0 -2 -2 -8t-4 -12.5t-3.5 -13t-1.5 -7.5zM324 530q0 -5 7.5 -12t17.5 -13.5t19.5 -11t13.5 -4.5q3 0 14 3.5t23 9t21.5 12t9.5 11.5v6q-1 1 -5.5 5t-5.5 5q-9 15 -13.5 25t-10 16.5t-14.5 9.5 t-26 3q-9 0 -18 -6.5t-16.5 -16.5t-12 -21t-4.5 -21z" />
<glyph unicode="k" d="M207 21h21q14 0 27 -1.5t23 -6t13 -13.5q2 2 5.5 10t4.5 11l0.5 2t0.5 3t-0.5 2.5t-0.5 2.5q-12 5 -28 13t-30.5 18.5t-25 23.5t-10.5 29q0 8 7 14t16 13.5t17.5 19t12.5 31.5h93q0 4 1.5 13.5t3 20t3.5 20t3 13.5q1 6 8 11t15.5 10.5t16.5 10.5t12 10q1 2 4.5 11t5.5 10 q1 1 6 2t10 2.5l10 3t6 2.5q3 2 10.5 12.5t9.5 13.5h84q2 0 9.5 10.5t11.5 15.5v6v5q-1 2 -5 5.5t-6 4.5q-5 0 -16 0.5t-23 0.5h-24h-15q-20 0 -36.5 0.5t-32.5 -1t-31 -6.5t-30 -15q-2 -2 -10.5 -5.5t-10.5 -4.5q15 -6 18.5 -15t3.5 -21q0 -3 -0.5 -9t-0.5 -7 q-1 -2 -10 -10.5t-11 -10.5q-1 -1 -2.5 -6l-3 -10t-2.5 -9.5t-2 -5.5l-8 -4l-13 -6.5t-13.5 -6.5t-7.5 -4q-2 -1 -6 -6t-9.5 -10.5l-10 -10t-5.5 -4.5q-1 -1 -11 -1.5t-15 -0.5q-3 0 -13.5 0.5t-12.5 1.5q-8 15 -10 26t-2 26q0 5 0.5 12.5t0.5 8.5q1 2 6 10.5t5 10.5 q0 1 -4.5 4.5t-6.5 5.5t-7 2q0 -8 -0.5 -27.5t-1 -41t-1 -41.5t-0.5 -27q0 -3 -2 -12t-3.5 -19.5t-3.5 -20t-2 -11.5v-24v-18q1 -2 10.5 -5t10.5 -5q4 -6 -1.5 -16l-5.5 -10h-55l2.5 -10t7.5 -16q1 -1 13 -5l18 -6h6q8 0 11.5 5.5t13.5 5.5zM395 10q0 -1 4 -4.5t7 -5.5h4 q20 0 37.5 5.5t37.5 5.5q3 0 8 0.5t11 0t10.5 -3t5.5 -8.5q3 0 9 3t12.5 6t12.5 6.5t8 5.5l1 4t1 6t-1 5.5t-1 5.5q-3 0 -10.5 1.5t-16 3t-15.5 3t-10 2.5q-11 4 -24.5 16t-27 25t-26 23t-21.5 10q-1 0 -3 -0.5l-2 -0.5zM583 10q1 5 -6 5q-6 0 -5 -5q2 -5 5 -5q4 0 6 5z M103 31q2 5 -5 5t-5 -5t5 -5q4 0 5 5zM385 167q1 5 -6 5q-6 0 -5 -5q2 -5 5 -5q4 0 6 5zM187 458v-93h33q0 6 -3.5 13t-8 14.5t-8 16t-3.5 19.5q0 14 11 30t11 37q0 3 -0.5 9l-0.5 6q0 2 -5 5.5t-5 5.5q-1 3 -3 10t-3.5 15.5t-3 16t-1.5 10.5h-104v-10q6 -2 16 -4t21 -5.5 t20.5 -9t15.5 -13.5q1 -2 5 -10.5t5 -10.5q2 -2 11 -10t10 -10q0 -1 0.5 -4.5t0.5 -5.5q0 -7 -1.5 -13t-9.5 -9z" />
<glyph unicode="l" d="M189 52q0 -2 -1 -9.5t-3.5 -16t-6.5 -16t-10 -10.5h9t12.5 -0.5t12.5 -0.5h8q13 0 24 2t21 4t20.5 4t23.5 2q10 0 16 -2t11 -4t10.5 -4t14.5 -2q16 0 20 3.5t4.5 9.5t1.5 14t10 16q4 3 10.5 0t10.5 -6t5 -4v-34l6 0.5t10 1.5q10 3 20 11t18 18.5t14.5 22t9.5 21.5 q-3 1 -10 2.5t-15.5 3t-16 3t-10.5 1.5q-1 0 -5 0.5t-6 0.5q-9 0 -16.5 -5t-14.5 -11.5t-14.5 -11.5t-16.5 -5q-1 0 -5 0.5t-5 0.5q-5 19 -13.5 41.5t-8.5 42.5q0 15 6 27t6 29q0 14 -1.5 36t-9.5 32q-1 1 -5.5 2.5t-10 3t-10 3t-5.5 2.5q-1 0 -1 3v6q0 10 6.5 19t14.5 18 t14.5 17.5t6.5 19.5v157q0 1 -1 5t-2.5 9t-3.5 10t-3 7q-1 1 -5.5 5t-4.5 5q-1 1 -2.5 7.5t-3 14t-3 13.5t-2.5 7l-6.5 1.5t-14.5 3t-16.5 3t-14.5 2.5l-2 0.5t-3 0.5q-10 0 -17 -3.5t-13.5 -7.5t-13 -7.5t-13.5 -3.5h-11q-1 1 -5 6t-5 5q-3 0 -9 1t-13 1.5t-13.5 1 t-8.5 0.5q0 -13 6 -23t15.5 -17t21 -11t22.5 -5h11t19.5 0.5t19.5 0.5q10 0 12 -1q1 -1 4.5 -7t6.5 -13.5t6 -14t4 -7.5t5.5 -5t4.5 -5t0.5 -4.5t0.5 -5.5t-0.5 -6.5l-0.5 -4.5q0 -2 -5 -10.5t-5 -10.5q-7 -33 -9 -59t-2 -57q0 -21 5.5 -38.5t5.5 -37.5v-16q0 -2 -2 -10 t-3.5 -16.5t-3.5 -16t-2 -9.5v-12v-20v-20v-11q0 -5 -1.5 -17t-3 -25t-3 -25t-2.5 -16q-2 -1 -11 -1h-10q-14 0 -24 5.5t-23 5.5h-5zM450 427q-2 -3 -6 -15t-5 -16q-1 -5 -2.5 -20t-3 -33.5t-3 -35.5t-1.5 -26q0 -3 -0.5 -10.5t-1 -15.5t-0.5 -16v-10h36q0 26 -7 47.5 t-7 46.5q0 11 1.5 18t4 13t4 12t1.5 14v5q0 3 -1.5 9t-3.5 12.5t-3.5 12.5t-1.5 8zM575 240q-5 1 -5 -6q0 -6 5 -5q5 2 5 5q0 4 -5 6zM439 615v-84l11 11v83zM450 708q1 5 -6 5q-6 0 -5 -5q2 -5 5 -5q4 0 6 5zM377 761q2 0 9.5 -1t16 -3.5t16 -6.5t10.5 -10v21h-52z" />
<glyph unicode="m" d="M81 64q0 -31 16 -40.5t35.5 -11t36.5 -1.5t19 -11q10 7 15.5 18.5t5.5 23.5q0 4 -6 16t-13.5 24.5t-14.5 22t-8 10.5q-1 0 -9 0.5t-12 0.5q-5 0 -12.5 -0.5t-8.5 -0.5q-2 -1 -5.5 -10.5t-4.5 -10.5t-6 -2.5t-10.5 -3t-10 -3t-5.5 -2.5l-1 -7.5t-1 -11.5zM250 21 q4 -1 16 -2.5t25.5 -3t25 -3t16.5 -2.5h17q19 0 33.5 3.5t14.5 26.5q0 12 -7 24t-15.5 24t-15.5 23.5t-7 23.5q0 11 6 14.5t6 11.5q0 7 -2 9.5t-4 5.5t-4 8.5t-2 18.5q0 5 0.5 15t0.5 11t5 5t6 5v10v16v17v10q1 6 10.5 18t22.5 24.5t26.5 21.5t22.5 9q4 0 11 -1.5t14 -4 t12 -6.5t5 -9v-240q-19 -14 -35.5 -33.5t-16.5 -45.5v-4q18 -12 44 -12h45h11q9 0 18 0.5t17 0.5h11q6 1 8.5 6.5t3.5 12t0.5 12t-0.5 7.5q0 8 -4 19t-10.5 22.5t-14 21t-14.5 14.5q-1 10 -2.5 35t-3 53t-3 53.5t-1.5 35.5q-1 23 -2.5 40t-7.5 29.5t-18.5 23t-34.5 21.5 q0 1 -2 1h-3q-9 0 -12.5 -6t-13.5 -6q-11 0 -14 6t-12 6q-5 0 -5 -1q-2 -1 -6 -4.5t-5 -5.5q-11 -1 -39 -2.5t-59.5 -3t-60 -3t-39.5 -1.5q-2 0 -10.5 -0.5t-12.5 -0.5t-11 0.5l-7 0.5q-2 0 -8 1.5t-13 3.5t-13.5 3.5t-7.5 1.5q-6 0 -15 -1t-17 -2.5t-14 -3.5t-6 -3v-11 q3 1 9 0t12.5 -2.5t12.5 -4t8 -3.5q1 -1 3 -5t3.5 -9t2.5 -10t1 -7v-157q0 -17 8 -28t25 -11q0 20 -6.5 36.5t-6.5 35.5q0 2 0.5 5.5l0.5 3.5q2 2 10 6.5t11 3.5q0 4 1 15t2.5 22.5t3.5 21.5t3 14q0 2 5 6t6 5q1 2 4.5 10.5t5.5 10.5q1 1 6 2t10 2.5t9.5 3t5.5 2.5 q2 1 5.5 10.5t5.5 10.5l3.5 0.5t5.5 0.5q10 0 21.5 -8t21 -20t15.5 -24.5t6 -21.5q0 -14 -6 -19.5t-6 -22.5q0 -11 2 -17t4 -11t4 -11.5t2 -17.5t-2 -17.5t-4 -12t-4 -11.5t-2 -16q0 -17 6 -22.5t6 -19.5q0 -19 -10.5 -24.5t-23 -8t-23 -7t-10.5 -22.5q0 -3 1.5 -11t2.5 -10 z" />
<glyph unicode="n" d="M166 16q-1 -8 2.5 -11.5t8.5 -4.5t10 -1h9t8 -0.5t10.5 0.5t9.5 3.5t5 7.5h166q3 -10 11 -10.5t15 -0.5q14 0 19 6t17 6q15 0 26 -6t27 -6q2 0 10.5 0.5t10.5 0.5q-4 -1 -11.5 3.5t-9.5 6.5q-2 4 2.5 13t4.5 12q2 0 7 4.5t7 2.5t6 -10t4 -11q8 3 10 9t2 12q0 14 -11 18 t-24.5 6t-25.5 6.5t-13 21.5v17v29v30v18q0 9 -1.5 31t-3.5 46.5t-3.5 47t-2.5 31.5q-13 10 -22.5 24t-19.5 27.5t-23 23t-33 9.5q-3 0 -9 -0.5t-7 -0.5q-2 0 -10.5 -5t-10.5 -5q-5 -2 -18.5 -5t-28.5 -6.5t-28.5 -6t-18.5 -3.5q-3 -9 -8.5 -10t-11.5 -1q-13 0 -25.5 5 t-25 11.5t-25 11.5t-26.5 5q0 -26 8 -43t17 -31t17 -28.5t8 -34.5q0 -7 -2 -11.5t-4 -8t-4 -8.5t-2 -13q0 -3 -0.5 -8t0.5 -10t3.5 -9t7.5 -5v-83q-6 -3 -9 -8t-4.5 -10.5t-2.5 -11.5t-5 -12q-12 -18 -32 -31.5t-41 -20.5v-15h94zM229 73q-2 4 -5 16t-6.5 25t-6 25t-3.5 17 q0 2 -0.5 12t-0.5 15t0.5 14.5t0.5 10.5q0 2 5 5.5t5 5.5q1 4 3 14.5t3.5 22t3 22t1.5 14.5q4 0 16 4t15 6q2 1 5 10.5t5 10.5q4 3 16 8.5t25.5 11t25.5 9t17 3.5q12 0 23.5 -7t20.5 -18t14 -23.5t5 -24.5q0 -2 -0.5 -6t-0.5 -5q0 -2 -1.5 -8t-3.5 -13t-3.5 -13.5t-1.5 -7.5 l-0.5 -2t-0.5 -4q0 -1 0.5 -2.5l0.5 -1.5q1 -2 4.5 -6t5.5 -5v-104q-2 -1 -5.5 -4.5t-4.5 -5.5q-2 -2 -5.5 -11t-5.5 -10q-1 -1 -7 -2.5t-13.5 -3t-13.5 -3t-7 -1.5q-1 -1 -4 -4.5t-6.5 -7l-6.5 -6.5t-4 -3q-1 -1 -11 -1.5t-15 -0.5q-14 0 -23 4.5t-16.5 10.5t-16 11 t-22.5 7zM72 365q2 5 -5 5t-5 -5t5 -5q4 0 5 5z" />
<glyph unicode="o" horiz-adv-x="653" d="M275 449q-1 0 -3 -0.5l-2 -0.5l-10.5 -10.5l-10.5 -10.5q-2 -1 -8 -2.5t-13 -3t-13.5 -2.5t-7.5 -2q-9 -4 -23 -15t-27.5 -25t-23 -28.5t-9.5 -25.5v-177q0 -1 1 -5t2.5 -9t3.5 -10t3 -7t5.5 -5.5t5.5 -5.5q0 -2 1.5 -8t3 -13t3 -13t2.5 -7q1 -2 10 -5.5t11 -5.5l8 -8 t13 -13.5t13 -13.5t8 -7h7h13h13h8t10.5 -5t10.5 -5q1 0 11 -0.5t15 -0.5q13 0 30 2.5t32 9.5t26 18t11 28h73q1 0 2.5 8t3 18.5t3 22t2.5 19.5v7v14v13v8t5 10.5t5 10.5q1 6 3 17.5l4 23t3 21t1 11.5q0 1 -3.5 5.5t-7 9.5t-7 9.5t-3.5 6.5q-2 4 -3.5 16t-3.5 25t-3 25 t-1 17q-2 1 -10.5 5t-10.5 6q-1 1 -4.5 10t-5.5 10q-13 11 -35 22t-39 11q-12 0 -16.5 -3.5t-7.5 -8t-6.5 -8t-13.5 -3.5q-15 0 -24 5t-14.5 11.5t-9 11.5t-6.5 5zM154 240q0 5 4 15.5t9.5 21.5t11 21t8.5 15q1 1 3.5 7.5t6 13.5l6.5 13t4 7t7.5 2.5t13.5 3t13 3t8 2.5 t10.5 10.5t10.5 10.5q1 0 8 0.5t12 0.5q12 0 20 -3t15.5 -6.5t16 -7.5t22.5 -5q-1 15 11 21t23 6q0 -10 -1.5 -16t-4 -10t-4 -8.5t-1.5 -11.5q7 0 11.5 2t8.5 4t10 4t16 2q0 -2 -2.5 -12t-4.5 -13q-1 -1 -10 -4.5t-11 -5.5v-4q0 -12 3.5 -20.5t7.5 -16.5t7.5 -16.5 t3.5 -19.5q0 -17 -3 -39.5t-10.5 -44.5t-19.5 -40.5t-30 -27.5q-1 -1 -6 -1h-10t-10 0.5t-6 0.5q-2 -1 -10 -5.5t-10 -5.5h-26h-27q1 14 -9 18t-24 9.5t-28.5 16.5t-21.5 40q0 2 -1.5 9.5t-3.5 16.5t-3.5 16.5t-1.5 9.5q-1 1 -5.5 5t-5.5 5q0 1 -0.5 5t-0.5 6z" />
<glyph unicode="p" horiz-adv-x="653" d="M304 -176l20 -21q2 1 7 5.5t10 9.5t9 9.5t6 6.5q0 1 0.5 2.5t0.5 3.5q0 1 -0.5 2.5t-0.5 2.5q-2 1 -10.5 4.5t-10.5 5.5t-5.5 10.5t-5.5 10.5l-1.5 0.5t-3.5 0.5q-6 0 -8 -3.5t-3.5 -8t-4.5 -8t-10 -3.5q-12 0 -19 6t-12.5 14t-10 17.5t-10.5 15.5q-7 7 -11 8t-6.5 1.5 t-3.5 2t-1 9.5t3.5 11t8 4.5t8.5 4.5t4 11q0 9 -4.5 15.5t-18.5 5.5v48q3 0 10.5 1t16 1.5t15.5 1t10 0.5q2 0 5.5 -5t5.5 -5q1 -1 7.5 -2.5t13 -3.5t12.5 -3.5t8 -1.5q5 -1 17 -5l15 -5q2 -1 10.5 -6t10.5 -5t10 5t10 6q1 0 7.5 1.5t13.5 3t13 3t8 2.5q2 2 10.5 11t10.5 10 q9 5 18 6t17.5 2.5t15 6t11.5 16.5q1 2 2.5 9.5t3 16.5t3 16.5t2.5 9.5t10 5.5t11 5.5v5q0 9 -6 12t-6 14t6 15.5t6 15.5q0 14 -6 19.5t-6 22.5t6 22.5t6 19.5q0 9 -6.5 21t-15 24.5t-15 25t-6.5 22.5q0 7 1.5 12.5t9.5 8.5q-42 31 -84.5 42t-93.5 11q-13 0 -24 -5.5 t-22 -11.5t-22.5 -11.5t-24.5 -5.5q-12 0 -18 3.5t-9.5 8t-7.5 8.5t-11 4q-1 0 -7 -6t-13 -13.5t-12.5 -15.5t-5.5 -12q0 -9 2.5 -15.5t6.5 -12.5t7.5 -13t5.5 -17v-35q0 -24 0.5 -51t0.5 -52v-34q0 -29 0.5 -62.5t0 -68.5t-3 -70t-8.5 -65q-9 -5 -14 -16.5t-7 -19.5h-76 l0.5 -6t2.5 -10q1 -2 5 -6t5 -4h209zM252 147q0 3 -0.5 11t-0.5 17v17v12q0 28 -0.5 46.5t11.5 41.5q1 2 5.5 5.5t4.5 5.5q1 1 2.5 7.5t3 13.5t3 13t2.5 7t9 2.5t17 3t16.5 3t9.5 2.5q2 2 4.5 7.5t4 12.5t2 13t-0.5 9h11h10q2 -1 5.5 -5.5t5.5 -5.5t11 -2.5t19.5 -3t20 -2.5 t11.5 -2q15 -7 22 -18t12 -23t11 -24t18 -19q1 -5 2.5 -16.5t3 -24.5t3 -25t1.5 -17v-17q0 -13 -5.5 -24.5t-13.5 -22t-17 -20.5t-16 -20q-2 -2 -5.5 -11t-5.5 -10t-9.5 -2.5t-16.5 -3t-16.5 -3t-9.5 -1.5q-2 -1 -5.5 -5t-4.5 -6h-73l-4 12t-6 20q0 1 -1.5 7.5t-3 13.5 t-3.5 13t-3 7q-2 2 -7.5 4.5t-12 4t-12.5 2.5t-9 0zM84 402q0 -2 0.5 -3.5l0.5 -1.5q1 -2 4.5 -6t5.5 -5v31q-2 -1 -5.5 -4.5t-4.5 -5.5l-0.5 -2t-0.5 -3z" />
<glyph unicode="q" d="M377 -73q-6 -2 -23.5 -18t-36.5 -35t-34 -34.5t-15 -16.5h244q3 6 10.5 10t16 6.5t16 3.5t9.5 1v13q-2 0 -8 1t-12.5 2t-12.5 2.5t-9 2.5q-2 1 -5 10t-5 10q-7 7 -15 12t-15 10t-13 12t-9 19q32 3 67.5 7.5t67.5 12.5q2 2 2 6q0 1 -7.5 7t-17 14.5t-18 17.5t-11.5 18 q0 8 0.5 29t0.5 44t-0.5 44t-0.5 29q0 11 -1 35.5t-2 55.5t-2 65t-2 64.5t-2 55t-1 36.5q-5 2 -9.5 8t-1.5 13q-14 -11 -36 -15t-36 -6q2 -9 8.5 -18.5t14.5 -18t16 -15.5t13 -11v-14t0.5 -21.5t0.5 -22.5v-14q0 -16 0.5 -29t0 -25.5t-3 -25t-9.5 -25.5q0 -1 -5 -5t-5 -5 q-1 -2 -3 -8t-3.5 -12.5t-3 -12.5t-1.5 -9q-2 5 -5.5 21t-4.5 21q-1 9 -2.5 33t-3 50.5t-3 50.5t-1.5 33q-6 17 -16.5 19.5t-24.5 2.5q-11 0 -18 -2t-13 -4.5t-13 -4.5t-20 -2q-3 0 -15 0.5t-16 0.5q-3 10 -7.5 17t-9 13t-8.5 13.5t-6 19.5q-2 -5 -8 -17t-13 -15 q-2 0 -8 -1.5t-13 -3t-13 -3t-7 -2.5q-1 0 -4 -3t-6.5 -7t-6.5 -7l-4 -4l-8 -4t-13.5 -6.5t-13.5 -6.5t-7 -4q-9 -9 -13.5 -24t-9 -30.5t-11 -29.5t-18.5 -20v-146q2 -1 5.5 -4.5t4.5 -5.5q1 -3 6 -15t10 -26.5t9.5 -26.5t6.5 -15q2 -5 5.5 -13t4.5 -8q1 -1 5.5 -2.5t10 -3 t10 -3t5.5 -2.5q1 0 6 -3.5l10 -7t9.5 -6.5t6.5 -3q1 -1 13 -1.5t18 -0.5q3 0 15 0.5t16 1.5q-1 14 5 17.5t15 3.5q8 0 17.5 -5t4.5 -16q7 7 12.5 9t11 1.5t12 -2t16.5 -1.5v-70zM459 125h43v-115l-42 -20h10q-1 6 -2.5 20.5t-3 31t-3 31.5t-1.5 21q0 3 -0.5 15t-0.5 16z M231 83q-9 1 -18 10t-16.5 20t-12.5 23t-5 20v156q12 2 17 8t8.5 13t8.5 12t18 5v-90q2 -1 5.5 -4.5t4.5 -5.5q1 -3 6 -15t10 -26.5t9.5 -26.5t6.5 -15q2 -5 5.5 -13t4.5 -8q2 -2 8.5 2t8.5 4q0 11 -2.5 17.5t-6.5 12t-9 11.5t-9 15q-6 12 -8.5 22t-3.5 20t-0.5 21.5 t0.5 25.5v11t0.5 17t0.5 17v12q13 5 21.5 13.5t21.5 8.5q3 0 12 -11.5t20 -26t22.5 -28.5t17.5 -18v-11q0 -7 0.5 -15.5t0.5 -16.5v-10v-43t-12 -40q0 -1 -5 -5t-5 -5q-1 -2 -2.5 -8t-3 -13t-3 -13.5t-2.5 -7.5q-1 -2 -10 -5.5t-10 -4.5q-2 -2 -5.5 -11t-5.5 -10 q-1 -1 -7.5 -2t-13.5 -2.5t-13 -3.5t-7 -3q-2 -2 -4.5 -9.5t-4.5 -15.5t-2.5 -16t0.5 -11q-1 0 -5 -0.5t-5 -0.5q-12 0 -17 10t-6 23t0 25t2 16zM627 250q1 5 -6 5q-6 0 -5 -5q2 -5 5 -5q4 0 6 5zM314 479q2 5 -5 5t-5 -5q1 -5 5 -5t5 5zM366 512q-4 0 -12 -0.5t-9 -1.5 q-3 -2 -7 -9.5t-3 -11.5q2 0 8 -0.5t8 -0.5q12 0 21 3.5t15 18.5q-2 1 -10.5 1.5t-10.5 0.5z" />
<glyph unicode="r" d="M189 84q-5 0 -5 -1q-2 0 -6 -4.5t-5 -5.5q-15 -12 -25.5 -18.5t-17.5 -13t-10 -16t-3 -28.5q11 0 17 2t11.5 5t11.5 5t16 2q21 0 36.5 -6t38.5 -6q25 0 36.5 5.5t16.5 12.5t7.5 14t10.5 11q3 1 10 3t15.5 3.5t16 2.5t10.5 1q-4 10 -14 13.5t-22 6.5t-25 9t-22 23 q-2 6 -5 21t-6.5 31.5t-6 31t-3.5 20.5q0 1 -0.5 7.5t-0.5 9.5t0.5 8.5t0.5 6.5t5 5t5 5q6 18 9.5 36t10.5 32.5t20 24t38 11.5v-104h16v101q2 0 5.5 2t4.5 1q3 -2 16 -12.5t27 -22.5t26.5 -20.5t14.5 -6.5l52 52l0.5 3.5t0.5 5.5q0 19 -5 29t-13.5 15t-20 9t-25.5 11 q-1 0 -5 5t-5 5q-2 1 -8 2.5t-12.5 3.5t-12.5 3.5t-9 1.5l11 10q-3 0 -10.5 1.5t-16 3t-15.5 3t-10 2.5q-2 1 -6 5.5t-5 5.5h-5h-5q8 -14 9.5 -23.5t1.5 -23.5q0 -2 -0.5 -8t-0.5 -8q-3 0 -10.5 -1.5t-15.5 -3t-15.5 -3t-10.5 -2.5q-1 -1 -5 -5.5t-5 -5.5q-1 0 -7.5 -0.5 t-9.5 -0.5t-8.5 0.5t-6.5 0.5q-2 1 -10 10.5t-10 10.5h-6h-10h-10h-6q-2 1 -10 5.5t-10 5.5h-11q-30 0 -43 -12.5t-13 -41.5q14 0 23.5 6.5t23.5 6.5q8 0 14.5 -6t11.5 -14.5t10 -17.5t10 -15v-188q3 1 13.5 -3t12.5 -7v-9v-14q0 -7 -2 -14t-6 -11.5t-12 -4.5q-11 0 -14.5 6 t-12.5 6zM361 10q1 5 -6 5q-6 0 -5 -5q2 -5 5 -5q4 0 6 5zM309 141q3 -2 10 -6t15 -8t16 -7.5t11 -4.5q0 -1 4 -1h6q14 0 28.5 8t14.5 24q0 11 -8.5 16t-19.5 5h-5q-2 -3 -6 -13t-4 -13h-62zM525 503q0 -14 3 -23.5t8.5 -16.5t13.5 -12.5t19 -12.5q1 -1 5 -6t5 -5 q13 0 23 10.5t10 21.5q0 6 -11 13.5t-26 14.5t-29.5 11.5t-20.5 4.5z" />
<glyph unicode="s" horiz-adv-x="650" d="M314 1q2 -3 10 -11t11 -10l2 -0.5t3 -0.5q2 0 3.5 0.5t2.5 0.5q1 1 5 5.5t5 4.5h7h14h13h8q29 3 47.5 11t29 21.5t14.5 33.5t4 49h-27v-52h-89q-1 2 -5 5.5t-6 4.5q0 1 -5 1q-8 0 -11.5 -6t-14.5 -6q-8 0 -20.5 6t-26 14.5t-26.5 17.5t-21 15q-2 2 -10 11t-10 10 q-3 1 -11 2t-17 2t-17 2t-11 1q0 -17 3 -26.5t7 -18.5t8 -19t6 -26v-7v-10v-10v-5q2 -2 9.5 -6t11.5 -4q6 0 21 -0.5t31 -0.5q17 0 31.5 0.5t20.5 0.5zM157 288q0 -1 0.5 -3t0.5 -3q3 -6 7.5 -16t9.5 -19.5t9 -17.5t5 -9q5 -6 14.5 -10.5t20 -8l21 -7t17.5 -6.5q2 0 10.5 -5 t10.5 -5h7h14h13h8q7 -1 18.5 -2.5l23 -3t20.5 -3t11 -1.5q8 -3 14.5 -12t12 -18.5t11.5 -16.5t14 -7t9.5 1t2 3.5t1.5 6.5t8 11q1 2 10.5 5.5t10.5 5.5q3 11 -3.5 20t-14 16.5t-13 13.5t-1.5 12q-9 -8 -18.5 -9.5t-20.5 -1.5q-2 0 -7.5 0.5l-5.5 0.5q-2 2 -4 7.5t-3.5 12.5 t-2.5 13t0 9q-37 -22 -78 -22q-3 0 -13.5 0.5t-12.5 0.5q-1 3 -16.5 19.5t-33.5 35.5t-33.5 34.5t-16.5 15.5t-3 -0.5l-2 -0.5q-1 -2 -5 -10.5t-5 -10.5q-2 -1 -10.5 -5t-10.5 -5l-0.5 -2t-0.5 -3zM346 360q2 -11 10 -16.5t17.5 -9t19 -8t15.5 -12.5q1 -2 5 -11t6 -10 q7 -8 14.5 -9.5t16.5 -1.5q14 0 23 12t9 25q0 1 -0.5 3l-0.5 2q-1 1 -5.5 5t-4.5 5q-1 4 -3 14.5t-3.5 22t-3 22t-1.5 14.5q0 1 -2 1h-3h-3t-2 -1q-1 0 -5 -5t-6 -5q-1 0 -13 -0.5t-18 -0.5q-24 0 -45.5 11t-37.5 32q1 -14 -5.5 -18.5t-15.5 -4.5t-12 3.5t-5 8t-6 8.5t-14 4 q-14 0 -25 -7.5t-18.5 -19.5t-11.5 -26t-4 -27h138z" />
<glyph unicode="t" d="M301 23q10 0 14 -8.5t7.5 -19t9.5 -19t20 -8.5q13 0 26.5 5t25.5 13t23 17t20 18q2 2 5.5 10.5t4.5 10.5q2 2 11 5.5t10 4.5q10 13 10.5 31t0.5 32q0 4 0.5 14.5t-1 21.5t-5 19.5t-10.5 8.5q-11 0 -16.5 -10t-9.5 -22.5t-6 -25t-5 -16.5q-1 -2 -10 -5.5t-10 -5.5 q-2 -2 -6 -10t-5 -11h-62q-3 9 -9.5 16.5t-14 14.5t-13 15t-5.5 17v187q-7 2 -9 5.5t-1.5 7.5t2 8t1.5 9q2 0 8.5 1t8.5 1t8 -2t13 -4t13 -3.5t8 -1.5q1 0 6.5 1.5t12 3t13 3.5t10.5 3q3 1 11.5 5.5t18 10.5t16.5 11.5t7 8.5q0 1 -0.5 3l-0.5 2q-2 3 -7 8.5t-10 10.5l-9 9 t-5 4t-12 0.5t-17 0.5t-19 -0.5t-15 -0.5q-1 -1 -5 -5.5t-5 -5.5h-11q-5 0 -15.5 1.5t-10.5 9.5v128q-10 0 -21 -1t-20.5 -4.5t-16.5 -10.5t-10 -19q-1 -5 -2.5 -16.5t-3 -24.5t-3 -25t-1.5 -17q-8 -6 -20.5 -11t-24.5 -10t-20.5 -12.5t-8.5 -18.5q0 -14 9 -20t22.5 -8.5 t27.5 -4.5t25 -9q2 -2 10.5 -5.5t10.5 -4.5q0 -5 0.5 -21t0.5 -21q0 -19 -3.5 -33.5t-8 -27t-8 -26t-3.5 -29.5v-15q0 -7 1.5 -14.5t6 -13t14.5 -8.5q-5 -31 -1 -64.5t22 -60.5q-1 14 5.5 18.5t15.5 4.5zM291 73h20v-21h-20v21zM259 469h21v-20h-21v20z" />
<glyph unicode="u" horiz-adv-x="653" d="M400 33q13 0 27.5 -7t29 -15t29 -15t28.5 -7q30 0 54.5 15t24.5 48q0 15 -8.5 22.5t-20.5 11t-24.5 5t-19.5 3.5q-2 1 -5.5 5.5t-5.5 5.5q-2 2 -12.5 5.5l-13.5 4.5v94q0 2 -6 5.5t-9 4.5q-2 1 -13.5 1.5t-16.5 0.5t-13.5 -0.5t-8.5 -1.5q-2 -1 -3.5 -8.5t-3 -16.5 t-2.5 -17t-2 -10q-6 -21 -19.5 -37t-31.5 -26.5t-39 -16t-42 -5.5q-29 0 -44.5 2.5t-22.5 11.5t-8.5 26t-1.5 45v13q0 9 0.5 17t0.5 14v8t1 5t2.5 9t3.5 9.5t3 7.5q1 2 6 10.5t5 10.5t-5 5.5t-6 5.5q-2 8 -2.5 22t-3.5 28t-9.5 24.5t-20.5 10.5q-2 0 -8 -1t-8 -1 q-1 -7 -3 -25t-3.5 -37.5t-2.5 -37.5t-1 -25q0 -4 4 -16t6 -15q2 -2 11 -5.5t10 -5.5q1 0 1.5 -4t0.5 -6q0 -9 -4.5 -15.5t-18.5 -5.5v-83q3 -2 11 -10.5t10 -10.5t5.5 -10.5t5.5 -10.5q1 -2 10 -5.5t10 -4.5q3 -2 11 -10.5t10 -10.5h125q5 18 19 20t28 2zM427 310 q0 -14 -2 -20t-5 -10t-5 -7.5t-2 -11.5h55q1 0 4.5 8t5.5 13v5q0 11 -5.5 20t-5.5 22q0 7 0.5 15t10.5 10l-21 63q-3 0 -10.5 -0.5t-15.5 -0.5t-15.5 0.5t-10.5 0.5q-2 0 -11.5 1.5t-20 3.5t-19.5 3.5t-11 1.5t-10.5 -4t-10.5 -6l-0.5 -1.5t-0.5 -3.5q0 -16 8 -23.5 t19.5 -11.5t25.5 -7t25.5 -9t19.5 -18t8 -33zM72 386v-11h10v11h-10zM155 417v-11h11v11h-11z" />
<glyph unicode="v" d="M282 140q0 -12 -1.5 -24.5t-2 -25t1.5 -25t9 -23.5q1 -2 10 -5.5t11 -4.5q3 -2 11 -10.5t10 -10.5q1 -2 5 -10.5t5 -10.5q1 0 2.5 -0.5t3.5 -0.5l2 0.5t3 0.5q21 38 36 76t26 80q2 5 6 17t5 14q0 2 5 5.5t5 5.5q1 2 2.5 9.5t3 16.5t3 16.5t1.5 9.5q1 1 4 7.5t7 13.5t7 13 t3 8q1 2 2.5 9.5t3 16.5t3 16.5t2.5 9.5q1 1 7 4l13 6.5t13.5 6t7.5 3.5q2 2 5.5 11t5.5 10q1 2 10 5.5t11 5.5l0.5 1.5t0.5 3.5q0 1 -0.5 3l-0.5 2q-4 5 -11.5 13t-9.5 8h-160q0 -27 9.5 -44.5t35.5 -28.5v-73q-8 -4 -17.5 -24t-20.5 -42.5t-22.5 -41t-22.5 -18.5 q-2 0 -5.5 0.5t-4.5 0.5q-1 3 -4 10.5t-6.5 16t-6.5 15.5t-4 10q-1 1 -4 7.5t-7 13.5t-7 13t-3 8q-1 2 -2.5 11t-3 19.5t-3 20t-2.5 11.5q0 2 -4.5 10.5t-5.5 10.5q0 1 -0.5 5.5t-0.5 6.5t0.5 5.5l0.5 3.5q1 1 7.5 4t13.5 6t13.5 6t7.5 5l1.5 7.5t3 17.5t3 20.5t2.5 16.5 q1 2 1 10v11h-24q0 -15 13 -21q-39 3 -78.5 0t-77.5 -10q-3 -7 -5 -9t-4 -2t-5 1.5t-7 1.5v8l41 21v10h-114l-21 -26h73l21 -73h73q3 -14 12 -24t9 -23q0 -10 -6 -13.5t-6 -12.5q0 -1 0.5 -3l0.5 -2l4 -8l6.5 -13l6.5 -13l4 -8q1 -3 4 -10t6.5 -15.5t6.5 -16t4 -10.5 q-3 2 -11 1.5t-16 -2t-15.5 -4t-9.5 -5.5q-2 -1 -3.5 -11t-1.5 -15q0 -3 1.5 -13t3.5 -13q8 -3 17 -8t14 -13q1 2 4 6.5t6.5 9.5t6.5 9t4 6t4.5 11t5.5 10t12 -2.5t12 -3.5zM133 334q-2 1 -3.5 -2.5t-1.5 -8.5q0 -4 1.5 -7.5t3.5 -2.5q5 2 5 10t-5 11zM331 375 q-2 1 -3.5 -2.5t-1.5 -8.5q0 -4 1.5 -7.5t3.5 -2.5q5 3 5 11t-5 10zM456 375h21v-21h-21v21z" />
<glyph unicode="w" d="M187 41q1 -2 5.5 -6.5l9.5 -9.5l9.5 -9.5t6.5 -5.5l2 -0.5t3 -0.5t3 0.5l2 0.5q1 1 5 4.5t6 5.5q3 4 8 11t10 13.5t9 11.5t4 6q9 21 10 44.5t2.5 46t9 42.5t30.5 34q1 0 4.5 0.5t5.5 0.5t5.5 -0.5t5.5 -0.5q0 -4 1.5 -14.5t3 -22t3 -22t2.5 -14.5q1 -2 5.5 -5.5t5.5 -5.5 t2.5 -7.5t3 -12t3 -12.5t1.5 -9v-6v-10v-10v-6q1 -2 10.5 -10t10.5 -10q1 -3 2 -10t2 -14.5t2 -14.5t1 -9q7 0 10.5 2.5t5 6.5t3 9t5.5 9q2 1 11 4.5t10 5.5q9 15 14 40.5t9.5 52t11 47.5t17.5 27q1 25 3.5 49.5t8.5 47.5t18 43t33 37q-4 2 -16 5.5t-16 4.5q-2 1 -9.5 2.5 t-16.5 3t-16.5 3t-9.5 2.5q-1 0 -5 5t-5 5t-5 0.5t-6 0.5q-5 0 -12.5 -1.5t-7.5 -9.5q0 -15 6.5 -26.5t14.5 -22t14.5 -21t6.5 -24.5q0 -11 -4 -25t-9.5 -29.5l-11 -31t-7.5 -29.5h-42q-1 5 -3.5 17t-5.5 25t-6.5 25t-4.5 17q-1 1 -5.5 5t-5.5 5v10q0 49 42 63 q-6 22 -14.5 33.5t-20 16t-27.5 4.5h-35h-10q-6 0 -12 -0.5t-11 -1t-6 -0.5l-15 -10v-209q-11 2 -18.5 -3t-12 -14t-6 -18.5t-0.5 -16.5h-20q-1 0 -2.5 6t-3.5 14.5t-3.5 17t-1.5 14.5v15v27v27v15t-1.5 10.5t-3 15.5t-3 15.5t-2.5 10.5q-2 -9 -7 -14t-10.5 -8t-10 -6 t-4.5 -8q0 -9 6 -12.5t6 -13.5q0 -11 -6 -18.5t-6 -18.5v-5q0 -1 2 -5.5t3.5 -10t3.5 -10.5t2 -6q3 -15 6.5 -36t6 -43t4.5 -42.5t4 -34.5zM93 395q1 -2 4.5 -5.5t5.5 -4.5q1 -1 7.5 -4t13.5 -6.5l13 -6.5l8 -4t5.5 -10t4.5 -11q1 0 2.5 -0.5t3.5 -0.5q4 0 10.5 9t12.5 20.5 t10.5 22.5t4.5 15q-9 0 -14 -2.5t-9.5 -5l-9 -5t-11.5 -2.5t-10 3.5t-4.5 8t-3 8t-7.5 3.5q-8 0 -19 -9.5t-18 -12.5z" />
<glyph unicode="x" d="M90 20q25 -8 42.5 -9.5t42.5 -1.5q14 0 20.5 2t10 4l7 4t12.5 2q6 0 10 -2t7.5 -4.5t7.5 -4.5t11 -2q0 3 -0.5 12.5t-1 19.5t-1.5 19.5t-1 12.5q-1 2 -6 5.5t-5 5.5q0 1 -0.5 7.5t-0.5 10.5q0 2 0.5 7.5l0.5 5.5l52 52q1 1 4.5 1.5t5.5 0.5q15 0 24.5 -9.5t17.5 -23.5 q1 -2 2.5 -8t3 -13t3 -13.5t2.5 -7.5q1 -2 10 -5t10 -5q1 -1 1.5 -7t0.5 -9t-0.5 -9t-1.5 -6q-1 -3 -9 -7.5t-11 -3.5q12 -9 28.5 -20.5t33.5 -11.5q2 0 6 0.5t5 0.5t5.5 2t9.5 3.5t9.5 3t6.5 1.5q4 1 14 1h22h22q11 0 15 -1q-14 15 -27 26.5t-26 21.5t-26 20.5t-25 25.5 q-2 1 -6.5 7.5t-9.5 13.5t-10 13t-6 8q-1 1 -10 5t-11 5q-12 13 -21.5 35t-9.5 39v9q2 2 11 5.5t10 5.5q1 1 2 7t2.5 13.5t3 13.5t2.5 7q4 5 13 15t18.5 19.5t18.5 18t13 10.5q3 2 12 4t18.5 3.5t18.5 2.5t13 0v44q-73 0 -145 -12q-1 2 -1.5 10t-0.5 10q0 5 0.5 12.5 t1.5 8.5q1 4 9 8t11 3h-72l20 -84l21 -10v-48q-14 0 -27 -1.5t-23.5 1t-16.5 10.5t-6 28v10q1 1 6 5t5 5q0 19 -8 28t-20.5 12.5t-27 3t-27.5 -0.5q-14 0 -30.5 -1.5t-32 -6.5t-29.5 -13.5t-23 -21.5q5 1 17 0.5t25 -2t24.5 -4t16.5 -4.5q3 -1 11.5 -9t18.5 -18t19 -20 t14 -16q2 -3 6 -14.5t4 -16.5q0 -15 -5.5 -22.5t-13 -13t-17 -11t-16.5 -15.5q2 0 5.5 -0.5t5.5 -0.5t5.5 0.5t4.5 0.5t5 5t5 5q5 1 18 -1.5t18 -2.5q0 -2 4 -8.5t2 -8.5q-1 -2 -10.5 -5t-10.5 -5t-2.5 -8t-3 -13t-2.5 -13.5t-2 -7.5q-1 -2 -7 -8t-13.5 -13t-14 -13t-7.5 -7 q-10 -13 -18 -23.5t-24 -18.5q-2 -1 -9.5 -4t-16.5 -6.5t-16.5 -6.5t-9.5 -4q-2 -2 -6 -10t-4 -11zM444 260v-44q26 0 52 13q-14 5 -27.5 14t-24.5 17zM257 249q5 -1 5 -5q0 -3 -5 -5t-5 5t5 5zM413 312v-21h10zM205 572q2 -1 10 -4.5t10 -5.5l10.5 -10.5t16 -15.5 t15.5 -15.5t10 -10.5q1 3 1 13v13q0 14 -1.5 21.5t-6 11t-12.5 4t-22 0.5q-4 0 -16 -0.5t-15 -0.5zM434 562q-14 0 -18 -7t-4 -19v-8t1 -8q11 8 19 18.5t12 23.5h-10zM517 572q1 2 -2.5 3t-8.5 1q-4 0 -7.5 -1t-2.5 -3q2 -5 10 -5q9 0 11 5z" />
<glyph unicode="y" d="M89 -50q0 -5 0.5 -13t0.5 -9q0 -2 5 -5.5t5 -5.5q1 -2 2.5 -8t3 -13t3 -13t2.5 -7q4 -7 16 -14.5t25.5 -13.5t26.5 -10t21 -4h5q8 3 21.5 9.5t26.5 13.5t23 12.5t12 6.5q1 1 4.5 7t6.5 13t6 13l4 8t5.5 5.5t4.5 5.5l0.5 2t0.5 3q0 9 -6 12.5t-6 14.5q0 2 0.5 5.5l0.5 3.5 q1 2 10.5 5.5t10.5 5.5t2 9.5t2.5 16.5t3 16.5t2.5 9.5q1 1 5.5 5t5.5 5l6.5 13t9.5 18.5t9 18.5t6 13q-14 -1 -18.5 5.5t-4.5 15.5q0 2 0.5 6t1.5 4q2 2 15.5 5.5t15.5 5.5q1 1 4.5 9t7 17t6 16.5t3.5 9.5q1 1 5.5 5t5.5 5q2 3 6 11t4 10q1 6 3 21t3.5 31.5t2.5 31t1 20.5 q3 1 11 5t10 6q2 1 5.5 10t5.5 11q8 6 20.5 11t24.5 11t20.5 14.5t8.5 20.5q0 2 -0.5 7.5t-0.5 7.5q-11 -10 -22.5 -10.5t-24.5 -0.5q-5 0 -15 0.5t-11 0.5q-2 0 -8 2t-13 3.5t-13.5 3t-7.5 1.5q-2 0 -10.5 -4.5t-10.5 -5.5q-11 -5 -19 -7t-13 -6t-7.5 -11.5t-2.5 -22.5v-5 q3 1 9 1t13 -1.5t12.5 -4t7.5 -5.5q0 -1 0.5 -9t0.5 -13q0 -13 -5 -44t-14.5 -63t-23 -56.5t-30.5 -24.5q-2 0 -6.5 0.5l-4.5 0.5q-2 1 -5.5 5.5t-5.5 5.5q-27 18 -36 31.5t-11 27.5t-3.5 32t-11.5 44q-1 1 -5.5 5t-5.5 5q0 1 -0.5 7.5t-0.5 9.5q0 12 7 19.5t15 14t15 14 t7 18.5q0 15 -10.5 21.5t-24 8.5t-28 1.5t-21.5 0.5h-16h-16q-3 0 -12 -1.5t-19 -3t-19 -3t-12 -2.5q-1 -2 -1.5 -8t-0.5 -8q0 -14 9.5 -20t22 -10t25 -9.5t18.5 -17.5q1 -2 2 -8t2.5 -13t3 -13.5t2.5 -7.5q2 -2 11 -10.5t10 -10.5q12 -18 19.5 -41.5t15.5 -46.5t19 -44 t29 -35v-114q-7 -3 -10.5 -10.5t-5 -16t-2.5 -15.5t-2 -10q-2 -2 -10.5 -5.5t-10.5 -5.5t-10.5 -11t-10.5 -10q-5 -2 -19 2.5t-19 4.5q0 4 -2.5 12.5t-1.5 12.5q1 1 5.5 5t5.5 5q0 1 0.5 7.5t0.5 9.5q0 20 -14 33.5t-34 13.5q-3 0 -9 -0.5t-7 -0.5q-2 -1 -5.5 -10.5 t-4.5 -10.5q-8 -8 -15.5 -11.5t-13.5 -8t-10 -11.5t-4 -20z" />
<glyph unicode="z" d="M159 42q0 -5 1 -13t2 -9l31 -10h198q11 0 17.5 3.5t11 7.5t9.5 7.5t14 3.5q11 0 14 -6t12 -6h5q8 4 20 12t12 9v125q-4 0 -13.5 -4t-19.5 -9t-18.5 -10t-11.5 -8q-1 -1 -2.5 -7.5t-2.5 -13.5t-2.5 -13.5t-2.5 -7.5q-2 -1 -9.5 -2.5t-16.5 -3t-17 -2.5t-9 -2 q-3 -2 -7.5 -10t-3.5 -11h-73q-1 0 -4.5 12t-5.5 19q0 1 -0.5 5t-0.5 6q0 17 18 39.5t41 46t45.5 44.5t31.5 36q1 1 2.5 7.5t3 13.5t3 13t2.5 8t10 5.5t11 4.5q8 8 13 17.5t10.5 19.5t12 19t16.5 17q-9 12 -24.5 18t-32 9t-32.5 3.5t-26 0.5q-3 0 -9.5 -1t-13.5 -2.5 t-12.5 -3.5t-6.5 -3t-2.5 -7t-3 -13.5t-2.5 -14t-2 -7.5t-5.5 -5t-4.5 -5q-1 -2 -2 -4.5t-1 -3.5q39 0 75 -13q1 -1 2 -5t1 -5q0 -9 -2.5 -11t-7 -2.5t-11 -1t-13.5 -6.5q-4 -3 -13 -11.5t-18.5 -18.5t-18.5 -19.5t-12 -13.5q-1 -1 -4 -7l-6.5 -13t-6.5 -13.5t-4 -7.5 q-25 -33 -52.5 -58t-51.5 -57l-4 -4t-7 -6.5t-7 -6.5t-3 -4q-1 -2 -2 -13.5t-1 -16.5zM161 333q0 -9 -0.5 -21.5t1 -24.5t7 -20.5t17.5 -8.5q8 0 16.5 1t11.5 11q1 5 4.5 17t7 25t6 25t3.5 17q13 -5 24.5 -1.5t20.5 12.5t16 20t12 21l0.5 2t0.5 3q0 7 -6 10t-14 4.5t-17 1.5 h-13q-12 0 -21 -10.5t-18.5 -22.5t-23 -21.5t-34.5 -8.5q0 -4 -0.5 -16t-0.5 -15zM204 416q-5 2 -5 -5t5 -5q5 1 5 4q0 4 -5 6z" />
<glyph unicode="|" horiz-adv-x="104" d="M-1 -67q0 -8 1.5 -27.5t4 -40t6.5 -36.5t10 -16h52q-3 0 -11 4t-10 6t2 9t4 9q8 0 14 3t11 -10q0 3 3.5 9t7.5 13.5t7 14t3 9.5v6q0 1 -2 7.5t-3.5 13t-3.5 12.5t-2 8v11v20v20v11t-5 10.5t-5 10.5l-0.5 4.5t-0.5 6.5q0 10 6 13.5t6 11.5q0 7 -2 9.5t-4 5.5t-4 8t-2 17 q0 26 6 50t6 50q0 2 -0.5 6l-0.5 4q0 2 -1.5 10t-3.5 16.5t-3.5 16t-1.5 9.5v13q0 13 -0.5 29.5t-0.5 33.5v27q0 56 6 108t6 107v11v15q0 8 -0.5 13.5l-0.5 5.5q0 2 -5 10.5t-5 10.5v9q0 24 5.5 47.5t5.5 47.5q0 12 -1 23t-5 19.5t-12.5 14t-23.5 5.5q-2 0 -6 -4.5t-5 -6.5 v-6v-10v-10v-5q0 -4 -1.5 -13.5l-3 -19t-3 -18t-2.5 -11.5q0 -2 -5 -10.5t-5 -10.5q0 -3 1.5 -13.5t3 -22.5t3.5 -22.5t2 -13.5v-11q0 -19 -2.5 -34.5t-4.5 -31t-3.5 -32t0.5 -36.5l-11 -11v-166l-10 -20v-140h41v-31h-41q1 -4 2.5 -13.5t3 -20.5t3 -20.5t1.5 -13.5 l0.5 -4.5t0.5 -6.5q0 -20 -6 -37.5t-6 -38.5zM21 207h20v-21h-20v21z" />
<glyph unicode="&#xa8;" d="M211 597q0 -17 10.5 -27t27.5 -10q3 0 8.5 1t6.5 1q1 1 5.5 5t9.5 9l9.5 9.5t6.5 7.5l0.5 2t0.5 3q0 17 -15 32.5t-32 15.5q-20 0 -29 -14.5t-9 -34.5zM357 605q0 -18 9.5 -31t26.5 -13q20 0 34.5 9t14.5 29q0 17 -8.5 32.5t-28.5 15.5q-18 0 -33 -12t-15 -30z" />
<glyph unicode="&#xad;" d="M231 265q10 0 35.5 -0.5t54 -1.5t54 -1.5t35.5 -1.5q2 0 8 -1.5t13 -3.5t13 -3.5t8 -1.5q11 0 27.5 2t31.5 8t25.5 15.5t10.5 24.5q0 14 -3.5 22t-10 13.5t-16.5 9.5t-23 9h-21t-31.5 0.5t-31.5 0.5h-21h-27t-33.5 -0.5t-29.5 -0.5h-14q-3 0 -13.5 -1.5t-22.5 -3.5 t-23 -3.5t-14 -1.5h-8h-13h-13h-7q-16 -5 -19 -14.5t-3 -21.5q0 -17 8 -24.5t14 -23.5q3 0 11 4.5t10 6.5t5 15.5t5 15.5q2 1 7.5 -0.5t11.5 -3.5t11.5 -4.5t7.5 -2.5q0 -7 -1.5 -10.5t-3 -5.5l-3 -4t-1.5 -6zM473 302h21v-21h-21v21z" />
<glyph unicode="&#xc4;" d="M67 11l31 -21q1 0 7 -0.5t14 -0.5q9 0 17 -0.5t13 -0.5q7 0 18.5 0.5t23.5 0.5t21 0.5t11 0.5q5 0 13.5 1.5t16.5 3t14.5 3t7.5 2.5t3 7t3.5 13.5t2.5 13.5t2 8q0 1 5 5t5 5q2 4 2.5 10l0.5 6h-72l-3 10t-1 16q1 2 5.5 5.5t5.5 5.5q2 2 5.5 10t4.5 10q6 1 21 2.5t31.5 3 t31 3t20.5 2.5q2 0 9 -0.5t9 -0.5q0 -3 0.5 -12t1.5 -18.5t1 -18.5v-13q-2 -15 -5 -22t-8 -12t-12.5 -10.5t-16.5 -17.5v-5v-6q13 -4 24 -6.5t21 -3.5t20 -1h23q44 0 86.5 7.5t86.5 3.5q0 5 3.5 14t7.5 18t7 16.5t3 9.5v5q-1 1 -6 2.5l-10 3l-10 3t-6 1.5q-6 3 -16.5 8 t-20.5 10t-17.5 9t-7.5 5q-2 1 -5 10.5t-6.5 20t-6 20t-3.5 11.5t-3.5 8t-6 12.5t-7 12.5t-4.5 9q0 1 -5 5t-5 5q-1 2 -2.5 9.5t-3 16.5t-3 16.5t-2.5 9.5q0 2 -4 10t-6 11q-1 1 -5.5 5t-4.5 5q-1 3 -2 10.5t-1.5 16t-1 15.5t-0.5 10h-16q-1 -3 -4 -10.5t-6 -15.5 t-6.5 -15.5t-4.5 -10.5q-1 -1 -5.5 -5t-4.5 -5q-2 -11 -1.5 -20t1 -17.5t-1.5 -17t-9 -18.5q-1 -2 -10 -5.5t-11 -4.5q-7 -7 -8 -11.5t-1.5 -7t-2 -3.5t-9.5 -1q-2 0 -5.5 0.5t-4.5 1.5q-2 1 -5 10.5t-5 10.5q-3 1 -9.5 3t-14 3.5t-14 2.5t-9.5 1v111q-19 0 -30.5 -13 t-18.5 -30.5t-11 -36.5t-8 -31q0 -1 -5 -5t-5 -5q-1 -3 -2.5 -13.5t-3 -23t-3 -23t-2.5 -13.5q-5 -16 -13.5 -25t-19 -15.5t-21.5 -13.5t-19 -19l-4 -8t-6 -13t-6 -13.5t-4 -7.5l-5.5 -5.5t-5.5 -4.5zM46 32l-10 -11h10v11zM400 125h21v-52h-21v52zM273 560q0 -5 2.5 -12 t6 -14.5t7.5 -14t7 -8.5q1 -1 6 -2.5l10 -3t9.5 -3t5.5 -2.5q1 0 5 -12t6 -19q0 -2 1.5 -8t3 -13t3 -13.5t2.5 -7.5q2 -2 11 -5t10 -5q1 -3 3 -10.5t4 -15.5t3 -15.5t1 -10.5q0 -1 2 -1.5t3 -0.5t3 0.5t2 1.5t1.5 5t3.5 9t3.5 9.5t1.5 7.5l0.5 2t0.5 3t-0.5 3l-0.5 2 q-1 5 -4.5 17.5t-5.5 14.5q-1 1 -5.5 5t-4.5 5q-1 1 -2.5 7.5t-3 13.5t-3 13t-2.5 8t-10 5t-11 5q-1 2 -4.5 10.5t-5.5 10.5t-10.5 5.5t-10.5 4.5q-2 2 -5 11t-5 10q-4 2 -17 5t-17 3zM244 406v-10h11v10h-11zM275 500q-2 0 -6 -4t-4 -6q0 -3 -1 -10.5t-1.5 -16t-1 -15.5 t-0.5 -10h14v62zM202 733q0 -17 10 -27t27 -10q3 0 9 0.5t7 1.5l5 5l9 9t10 9.5t7 7.5v5q0 18 -14.5 33t-31.5 15q-21 0 -29.5 -14.5t-8.5 -34.5zM347 741q0 -18 10 -31t27 -13q20 0 34.5 9t14.5 29q0 17 -9 32.5t-29 15.5q-17 0 -32.5 -12t-15.5 -30z" />
<glyph unicode="&#xc5;" d="M52 11l31 -21q1 0 7 -0.5t14 -0.5q9 0 17 -0.5t13 -0.5q7 0 18.5 0.5t23.5 0.5t21 0.5t11 0.5q5 0 13.5 1.5t16.5 3t14.5 3t7.5 2.5t3 7t3.5 13.5t2.5 13.5t2 8q0 1 5 5t5 5q2 4 2.5 10l0.5 6h-72l-3 10t-1 16q1 2 5.5 5.5t5.5 5.5q2 2 5.5 10t4.5 10q6 1 21 2.5t31.5 3 t31 3t20.5 2.5q2 0 9 -0.5t9 -0.5q0 -3 0.5 -12t1.5 -18.5t1 -18.5v-13q-2 -15 -5 -22t-8 -12t-12.5 -10.5t-16.5 -17.5v-5v-6q13 -4 24 -6.5t21 -3.5t20 -1h23q44 0 86.5 7.5t86.5 3.5q0 5 3.5 14t7.5 18t7 16.5t3 9.5v5q-1 1 -6 2.5l-10 3l-10 3t-6 1.5q-6 3 -16.5 8 t-20.5 10t-17.5 9t-7.5 5q-2 1 -5 10.5t-6.5 20t-6 20t-3.5 11.5t-3.5 8t-6 12.5t-7 12.5t-4.5 9q0 1 -5 5t-5 5q-1 2 -2.5 9.5t-3 16.5t-3 16.5t-2.5 9.5q0 2 -4 10t-6 11q-1 1 -5.5 5t-4.5 5q-1 3 -2 10.5t-1.5 16t-1 15.5t-0.5 10h-16q-1 -3 -4 -10.5t-6 -15.5 t-6.5 -15.5t-4.5 -10.5q-1 -1 -5.5 -5t-4.5 -5q-2 -11 -1.5 -20t1 -17.5t-1.5 -17t-9 -18.5q-1 -2 -10 -5.5t-11 -4.5q-7 -7 -8 -11.5t-1.5 -7t-2 -3.5t-9.5 -1q-2 0 -5.5 0.5t-4.5 1.5q-2 1 -5 10.5t-5 10.5q-3 1 -9.5 3t-14 3.5t-14 2.5t-9.5 1v111q-19 0 -30.5 -13 t-18.5 -30.5t-11 -36.5t-8 -31q0 -1 -5 -5t-5 -5q-1 -3 -2.5 -13.5t-3 -23t-3 -23t-2.5 -13.5q-5 -16 -13.5 -25t-19 -15.5t-21.5 -13.5t-19 -19l-4 -8t-6 -13t-6 -13.5t-4 -7.5l-5.5 -5.5t-5.5 -4.5zM31 32l-10 -11h10v11zM385 125h21v-52h-21v52zM258 560q0 -5 2.5 -12 t6 -14.5t7.5 -14t7 -8.5q1 -1 6 -2.5l10 -3t9.5 -3t5.5 -2.5q1 0 5 -12t6 -19q0 -2 1.5 -8t3 -13t3 -13.5t2.5 -7.5q2 -2 11 -5t10 -5q1 -3 3 -10.5t4 -15.5t3 -15.5t1 -10.5q0 -1 2 -1.5t3 -0.5t3 0.5t2 1.5t1.5 5t3.5 9t3.5 9.5t1.5 7.5l0.5 2t0.5 3t-0.5 3l-0.5 2 q-1 5 -4.5 17.5t-5.5 14.5q-1 1 -5.5 5t-4.5 5q-1 1 -2.5 7.5t-3 13.5t-3 13t-2.5 8t-10 5t-11 5q-1 2 -4.5 10.5t-5.5 10.5t-10.5 5.5t-10.5 4.5q-2 2 -5 11t-5 10q-4 2 -17 5t-17 3zM229 406v-10h11v10h-11zM260 500q-2 0 -6 -4t-4 -6q0 -3 -1 -10.5t-1.5 -16t-1 -15.5 t-0.5 -10h14v62zM302 656q2 5 -5 5t-5 -5q1 -5 5 -5t5 5zM271 667q1 2 -2.5 3t-8.5 1q-4 0 -7.5 -1t-2.5 -3q2 -5 10 -5q9 0 11 5zM240 688q-5 1 -5 -6q0 -6 5 -5q5 2 5 5q0 4 -5 6zM385 760v-72q9 16 11.5 35.5t2.5 36.5h-14zM365 812h-105q-10 0 -16 -10t-9.5 -23t-5 -26 t-1.5 -19q0 -3 0.5 -13t0.5 -13q1 31 15 47t35.5 22.5t47 6t48.5 -2.5z" />
<glyph unicode="&#xd6;" horiz-adv-x="648" d="M235 22q0 -8 16.5 -16t38 -14t41.5 -9.5t28 -3.5q43 0 68 16.5t41 36t26 36t22 16.5v52l21 10l1.5 17t3.5 40t3.5 48t2.5 41v39q0 30 -6 61.5t-26 55.5q-1 2 -10 5.5t-10 5.5q-5 7 -6.5 17.5t-4 21t-7 19.5t-14.5 14q-1 1 -5.5 2.5t-10 3t-10 3t-5.5 2.5q-2 1 -5.5 10 t-4.5 11q-1 0 -2.5 0.5t-3.5 0.5q-1 0 -2.5 -0.5t-2.5 -0.5q-1 -2 -4.5 -14t-5.5 -18l-0.5 -2t-0.5 -4q0 -1 0.5 -2.5l0.5 -1.5q1 -1 6 -2.5l10 -3t9.5 -2.5t5.5 -2q2 -2 5.5 -10.5t5.5 -10.5q26 -41 35 -81t17 -86q1 -8 4.5 -14.5t7 -12.5t6.5 -12t3 -13t-3.5 -11 t-7.5 -7.5t-7.5 -7.5t-3.5 -10t3.5 -8t8 -4t8 -5t3.5 -10q0 -9 -6 -12t-13.5 -5.5t-14.5 -7t-9 -16.5q-1 -5 -3 -16.5t-3.5 -24.5t-3 -25t-1.5 -17q-27 4 -43 -2t-28.5 -15t-26.5 -17t-37 -8h-10q-2 1 -5.5 6t-5.5 5q-1 0 -13 0.5t-18 0.5q-4 0 -15.5 -0.5t-15.5 -0.5 q-2 -3 -6.5 -15t-4.5 -16zM121 209q0 -40 19.5 -77.5t42.5 -68.5l6 -6t5 -4q2 0 8 1t13 2.5t12.5 3.5t7.5 3q1 1 1 3v2q0 5 -1 6q-2 6 -5.5 18t-4.5 13t-7.5 2.5t-13.5 2.5t-13.5 2.5t-7.5 2.5t-2.5 9t-3 17t-3 16.5t-1.5 9.5q-4 14 -13 21.5t-9 20.5q0 10 6 13.5t6 12.5 q0 3 -3.5 9t-8 12.5t-9 11.5t-5.5 5q-4 0 -6 -2q-1 -3 -3 -12t-3.5 -18.5t-2.5 -18.5t-1 -13zM121 365v-23q10 0 16.5 6.5t6.5 16.5h-23zM163 479q0 -3 -1 -10.5t-3 -15.5t-4 -15.5t-3 -10.5q-1 -2 -10 -5t-11 -5q-1 -2 -2.5 -11t-1.5 -11q2 0 8.5 1.5t14 3t14.5 3.5t9 4 q2 1 5.5 13t4.5 18q1 5 2 20.5t1 20.5h-23zM215 531v-10h10v10h-10zM267 563v-11h52v11h-52zM350 573q0 -11 7 -18t17 -7q0 8 -1.5 20t-12.5 15q-2 0 -6 -4t-4 -6zM214 733q0 -17 10 -27t27 -10q3 0 9 0.5t7 1.5l5 5l9 9t10 9.5t7 7.5v5q0 17 -14.5 32.5t-31.5 15.5 q-21 0 -29.5 -14.5t-8.5 -34.5zM359 741q0 -18 10 -31t27 -13q20 0 34.5 9t14.5 29q0 17 -9 32.5t-29 15.5q-17 0 -32.5 -12t-15.5 -30z" />
<glyph unicode="&#xe4;" d="M79 130q0 -7 2.5 -23.5t7 -34t10 -32.5t12.5 -19q3 -2 10.5 -3t16 -2.5t15.5 -5t10 -10.5h146q5 3 17 8.5t26 11t26.5 9t18.5 3.5q25 0 46.5 -6t47.5 -6h9q7 0 14.5 0.5t13.5 0.5h10q1 3 2.5 10.5t3 15.5t3 15.5t2.5 10.5v5v5q-3 0 -10.5 1.5t-16 3t-16 3.5t-10.5 3 q-7 2 -9 5t-1.5 6.5t2 7.5t1.5 9q30 0 55.5 -5.5t56.5 -5.5v24q-3 0 -9 1.5t-12.5 3t-12.5 3.5t-8 3q-7 3 -10.5 10.5t-5.5 15.5t-3 15.5t-2 10.5q0 1 -5 5t-5 5q-1 1 -1 13v18q0 1 -0.5 7.5t0 14t3 13.5t8.5 7q-6 4 -8.5 9.5t-5 10.5t-6 8.5t-10.5 3.5h-7q-4 0 -5 -1 q-1 0 -5 -5t-5 -5q-6 -2 -16 1l-10 3v58q-12 3 -22.5 9.5t-20.5 13t-21 12t-24 7.5h-8h-13h-14h-7q-7 2 -13.5 15.5t-7.5 15.5v6v5q1 2 4.5 5.5t5.5 4.5q-1 0 -4.5 0.5t-5.5 0.5q-22 0 -31.5 -6.5t-14.5 -15t-9.5 -15t-17.5 -6.5q-1 0 -5 5t-5 6h-5q-11 0 -26 -10t-29 -23.5 t-24 -29t-10 -25.5v-6q2 -11 2.5 -22t3.5 -20t9.5 -15t20.5 -6q23 0 35.5 7t19.5 17.5t10.5 23t9 23t14 17.5t26.5 7h9t7 -1q1 0 5.5 -1.5t10 -3t10 -3.5t5.5 -2q2 0 9.5 -1.5t16.5 -3t16.5 -3t9.5 -2.5q1 -1 2.5 -7.5t2.5 -13.5t2.5 -13.5t2.5 -7.5q2 -2 8 -4t12.5 -4 t12.5 -2.5t9 0.5v-21q-5 -1 -21 -5t-21 -6q-1 0 -5 -5t-5 -5h-6h-10h-10h-5q-2 -1 -10.5 -5.5t-10.5 -5.5q-1 0 -7.5 -0.5t-9.5 -0.5t-8.5 0.5l-5.5 0.5q-3 2 -7.5 10t-3.5 11q-8 -7 -15 -9t-17 -2q-8 0 -10.5 3.5t-4.5 8t-5 8t-10 3.5q-2 0 -6 -0.5t-5 -0.5q-2 -2 -5 -6 t-6 -9l-6 -10t-3 -7l-84 -20q-1 -3 -4 -10t-7 -15.5t-9 -16t-11 -10.5q0 -5 -0.5 -18.5t-0.5 -18.5zM163 114v11q1 3 4 10.5t6 16t6 15.5t5 10q9 -5 12 -13.5t5 -17.5l4 -18t10 -13q10 -6 20 -8t17.5 -4t12 -8.5t4.5 -21.5h-85q-5 12 -13 20.5t-8 20.5zM225 167q0 1 0.5 4.5 t0.5 5.5q3 0 12 1.5t19 3t19 3t12 2.5q11 4 23 13t30 9q7 0 17.5 -4.5t21 -11t18 -15t7.5 -16.5q0 -10 -3.5 -14.5t-8.5 -7l-11 -5.5t-10 -10h-125q-5 12 -13.5 20.5t-8.5 21.5zM477 208q0 13 -2.5 20t-5.5 14t-5.5 15.5t-2.5 24.5h7q6 0 8 -1q7 -2 19 -6l12 -4v-94h-42 q11 2 11.5 13.5t0.5 17.5zM351 293q-21 0 -42.5 -3.5t-41.5 -8.5h84v12zM496 416v-20h21v20h-21zM465 448q2 2 -3.5 3t-12.5 1q-6 0 -11.5 -1t-3.5 -3q4 -5 16 -5t15 5zM183 545q0 -17 10.5 -26.5t27.5 -9.5q3 0 9 0.5l6 0.5q1 1 5.5 5t9.5 9l9.5 9.5t6.5 7.5q1 1 1 5 q0 18 -15 33.5t-32 15.5q-20 0 -29 -15t-9 -35zM329 553q0 -18 9.5 -31t27.5 -13q19 0 33.5 9t14.5 29q0 18 -8.5 33t-28.5 15q-17 0 -32.5 -11.5t-15.5 -30.5zM299 635v-23q13 0 20 13q-1 2 -4.5 5.5t-5.5 4.5l-2 0.5t-3 0.5t-3 -0.5zM455 635q-13 -7 -13 -21h26 q0 14 -13 21z" />
<glyph unicode="&#xe5;" horiz-adv-x="650" d="M92 130q0 -7 2.5 -23.5t7 -34t10 -32.5t12.5 -19q3 -2 10.5 -3t16 -2.5t15.5 -5t10 -10.5h146q5 3 17 8.5t26 11t26.5 9t18.5 3.5q25 0 46.5 -6t47.5 -6h9q7 0 14.5 0.5t13.5 0.5h10q1 3 2.5 10.5t3 15.5t3 15.5t2.5 10.5v5v5q-3 0 -10.5 1.5t-16 3t-15.5 3.5t-10 3 q-2 0 -6 4t-5 6q0 1 -1.5 7.5t-3.5 13.5t-3.5 13t-1.5 8q-1 1 -5.5 5t-5.5 5v11q0 14 6 19.5t6 22.5v8q0 6 -1 11.5t-5 8.5t-11 2v125q-12 3 -22.5 9.5t-20.5 13t-21 12t-24 7.5h-8h-13h-14h-7q-2 1 -10.5 10.5t-10.5 10.5l-6 0.5t-9 0.5q-8 0 -12.5 -2t-8.5 -4t-8.5 -4 t-12.5 -2q-7 0 -10.5 1.5t-6.5 4t-6 4t-8 1.5q-11 0 -26 -10t-29 -23.5t-24 -29t-10 -25.5v-6q2 -11 2.5 -22t3.5 -20t9.5 -15t20.5 -6q23 0 35.5 7t19.5 17.5t10.5 23t9 23t14.5 17.5t26 7h9t7 -1q1 0 5.5 -1.5t10 -3t10 -3.5t5.5 -2q2 0 9.5 -1.5t16.5 -3t16.5 -3 t9.5 -2.5q1 -1 2.5 -7.5t2.5 -13.5t2.5 -13.5t2.5 -7.5q2 -2 8 -4t12.5 -4t12.5 -2.5t9 0.5v-21q-5 -1 -21 -5t-21 -6q-1 0 -5 -5t-5 -5h-6h-10h-10h-5q-2 -1 -10.5 -5.5t-10.5 -5.5q-1 0 -7.5 -0.5t-9.5 -0.5t-8.5 0.5l-5.5 0.5q-3 2 -7.5 10t-3.5 11q-2 -2 -10 -5.5 t-11 -4.5q-9 -2 -31 -6.5t-46.5 -9.5t-47 -9.5t-31.5 -5.5q-1 -3 -4 -10t-7 -15.5t-9 -16t-11 -10.5q0 -5 -0.5 -18.5t-0.5 -18.5zM176 114v11q2 6 5 16t6.5 19t6 15.5t3.5 6.5h104q3 17 21 22t32 5q2 0 5.5 -0.5t4.5 -0.5t5 -4.5t5 -5.5t7.5 -4t14 -6t13.5 -6.5t7 -4.5 t2 -11t1 -15t-1 -15t-2 -11q-1 -2 -7 -3.5t-13.5 -3t-14 -2.5t-7.5 -1l-4 -4t-6.5 -7t-6.5 -7t-4 -3q-2 -1 -11.5 -2.5t-20 -3t-19.5 -3t-11 -2.5q-2 0 -6 -4t-5 -6h-83q-5 12 -13 20.5t-8 20.5zM312 469q1 5 -6 5q-6 0 -5 -5q2 -5 5 -5q4 0 6 5zM280 479q1 2 -2.5 3t-8.5 1 q-4 0 -7.5 -1t-1.5 -3q2 -5 10 -5t10 5zM249 500q-5 1 -5 -6q0 -6 5 -5q5 2 5 5q0 4 -5 6zM395 573v-73q9 16 11 35.5t2 37.5h-13zM328 626q-47 0 -68.5 -15.5t-21.5 -63.5q0 -3 0.5 -13t0.5 -13q1 31 15 47t35.5 22.5t47 6t48.5 -2.5q-4 23 -22 27.5t-35 4.5z" />
<glyph unicode="&#xf6;" d="M283 449q-1 0 -3 -0.5l-2 -0.5l-10.5 -10.5l-10.5 -10.5q-2 -1 -8 -2.5t-13 -3t-13.5 -2.5t-7.5 -2q-9 -4 -23 -15t-27.5 -25t-23 -28.5t-9.5 -25.5v-177q0 -1 1 -5t2.5 -9t3.5 -10t3 -7t5.5 -5.5t5.5 -5.5q0 -2 1.5 -8t3 -13t3 -13t2.5 -7q1 -2 10 -5.5t11 -5.5l8 -8 t13 -13.5t13 -13.5t8 -7h7h13h13h8t10.5 -5t10.5 -5q1 0 11 -0.5t15 -0.5q13 0 30 2.5t32 9.5t26 18t11 28h73q1 0 2.5 8t3 18.5t3 22t2.5 19.5v7v14v13v8t5 10.5t5 10.5q1 6 3 17.5l4 23t3 21t1 11.5q0 1 -3.5 5.5t-7 9.5t-7 9.5t-3.5 6.5q-2 4 -3.5 16t-3.5 25t-3 25 t-1 17q-2 1 -10.5 5t-10.5 6q-1 1 -4.5 10t-5.5 10q-13 11 -35 22t-39 11q-12 0 -16.5 -3.5t-7.5 -8t-6.5 -8t-13.5 -3.5q-15 0 -24 5t-14.5 11.5t-9 11.5t-6.5 5zM162 240q0 5 4 15.5t9.5 21.5t11 21t8.5 15q1 1 3.5 7.5t6 13.5l6.5 13t4 7t7.5 2.5t13.5 3t13 3t8 2.5 t10.5 10.5t10.5 10.5q1 0 8 0.5t12 0.5q12 0 20 -3t15.5 -6.5t16 -7.5t22.5 -5q-1 15 11 21t23 6q0 -10 -1.5 -16t-4 -10t-4 -8.5t-1.5 -11.5q7 0 11.5 2t8.5 4t10 4t16 2q0 -2 -2.5 -12t-4.5 -13q-1 -1 -10 -4.5t-11 -5.5v-4q0 -12 3.5 -20.5t7.5 -16.5t7.5 -16.5 t3.5 -19.5q0 -17 -3 -39.5t-10.5 -44.5t-19.5 -40.5t-30 -27.5q-1 -1 -6 -1h-10t-10 0.5t-6 0.5q-2 -1 -10 -5.5t-10 -5.5h-26h-27q1 14 -9 18t-24 9.5t-28.5 16.5t-21.5 40q0 2 -1.5 9.5t-3.5 16.5t-3.5 16.5t-1.5 9.5q-1 1 -5.5 5t-5.5 5q0 1 -0.5 5t-0.5 6zM194 546 q0 -17 10 -27t27 -10q3 0 9 0.5t7 1.5t5 4.5t9 8.5l10 10t7 8v5q0 17 -14.5 32.5t-31.5 15.5q-21 0 -29.5 -14.5t-8.5 -34.5zM340 553q0 -18 9.5 -30.5t27.5 -12.5q19 0 33.5 8.5t14.5 29.5q0 17 -8.5 32.5t-28.5 15.5q-18 0 -33 -12t-15 -31z" />
<glyph unicode="&#x2000;" horiz-adv-x="406" />
<glyph unicode="&#x2001;" horiz-adv-x="812" />
<glyph unicode="&#x2002;" horiz-adv-x="406" />
<glyph unicode="&#x2003;" horiz-adv-x="812" />
<glyph unicode="&#x2004;" horiz-adv-x="270" />
<glyph unicode="&#x2005;" horiz-adv-x="203" />
<glyph unicode="&#x2006;" horiz-adv-x="135" />
<glyph unicode="&#x2007;" horiz-adv-x="135" />
<glyph unicode="&#x2008;" horiz-adv-x="101" />
<glyph unicode="&#x2009;" horiz-adv-x="162" />
<glyph unicode="&#x200a;" horiz-adv-x="45" />
<glyph unicode="&#x2010;" d="M231 265q10 0 35.5 -0.5t54 -1.5t54 -1.5t35.5 -1.5q2 0 8 -1.5t13 -3.5t13 -3.5t8 -1.5q11 0 27.5 2t31.5 8t25.5 15.5t10.5 24.5q0 14 -3.5 22t-10 13.5t-16.5 9.5t-23 9h-21t-31.5 0.5t-31.5 0.5h-21h-27t-33.5 -0.5t-29.5 -0.5h-14q-3 0 -13.5 -1.5t-22.5 -3.5 t-23 -3.5t-14 -1.5h-8h-13h-13h-7q-16 -5 -19 -14.5t-3 -21.5q0 -17 8 -24.5t14 -23.5q3 0 11 4.5t10 6.5t5 15.5t5 15.5q2 1 7.5 -0.5t11.5 -3.5t11.5 -4.5t7.5 -2.5q0 -7 -1.5 -10.5t-3 -5.5l-3 -4t-1.5 -6zM473 302h21v-21h-21v21z" />
<glyph unicode="&#x2011;" d="M231 265q10 0 35.5 -0.5t54 -1.5t54 -1.5t35.5 -1.5q2 0 8 -1.5t13 -3.5t13 -3.5t8 -1.5q11 0 27.5 2t31.5 8t25.5 15.5t10.5 24.5q0 14 -3.5 22t-10 13.5t-16.5 9.5t-23 9h-21t-31.5 0.5t-31.5 0.5h-21h-27t-33.5 -0.5t-29.5 -0.5h-14q-3 0 -13.5 -1.5t-22.5 -3.5 t-23 -3.5t-14 -1.5h-8h-13h-13h-7q-16 -5 -19 -14.5t-3 -21.5q0 -17 8 -24.5t14 -23.5q3 0 11 4.5t10 6.5t5 15.5t5 15.5q2 1 7.5 -0.5t11.5 -3.5t11.5 -4.5t7.5 -2.5q0 -7 -1.5 -10.5t-3 -5.5l-3 -4t-1.5 -6zM473 302h21v-21h-21v21z" />
<glyph unicode="&#x2012;" d="M231 265q10 0 35.5 -0.5t54 -1.5t54 -1.5t35.5 -1.5q2 0 8 -1.5t13 -3.5t13 -3.5t8 -1.5q11 0 27.5 2t31.5 8t25.5 15.5t10.5 24.5q0 14 -3.5 22t-10 13.5t-16.5 9.5t-23 9h-21t-31.5 0.5t-31.5 0.5h-21h-27t-33.5 -0.5t-29.5 -0.5h-14q-3 0 -13.5 -1.5t-22.5 -3.5 t-23 -3.5t-14 -1.5h-8h-13h-13h-7q-16 -5 -19 -14.5t-3 -21.5q0 -17 8 -24.5t14 -23.5q3 0 11 4.5t10 6.5t5 15.5t5 15.5q2 1 7.5 -0.5t11.5 -3.5t11.5 -4.5t7.5 -2.5q0 -7 -1.5 -10.5t-3 -5.5l-3 -4t-1.5 -6zM473 302h21v-21h-21v21z" />
<glyph unicode="&#x2013;" horiz-adv-x="753" d="M252 265q13 0 45 -0.5t67.5 -1.5t67.5 -1.5t45 -1.5q2 0 9.5 -1.5t16.5 -3.5t16.5 -3.5t10.5 -1.5q13 0 34 2t40 8t32 15.5t13 24.5q0 14 -4.5 22t-12.5 13.5t-20.5 9.5t-29.5 9h-26t-39.5 0.5t-39.5 0.5h-26h-34q-22 0 -42.5 -0.5t-37.5 -0.5h-17q-4 0 -17 -1.5 t-28 -3.5t-29 -3.5t-18 -1.5h-10h-16h-17h-8q-20 -5 -24 -14.5t-4 -21.5q0 -17 10 -24.5t18 -23.5q3 0 13.5 4.5t13 6.5t6 15.5t6.5 15.5q2 1 9 -0.5t14.5 -3.5t14.5 -4.5t9 -2.5q0 -7 -1.5 -10.5t-3.5 -5.5l-4 -4t-2 -6zM556 302h26v-21h-26v21z" />
<glyph unicode="&#x2014;" horiz-adv-x="1253" d="M355 265q25 0 89 -0.5t136 -1.5t136 -1.5t89 -1.5q5 0 20 -1.5t32.5 -3.5t32.5 -3.5t20 -1.5q28 0 69.5 2t79 8t64 15.5t26.5 24.5q0 14 -9 22t-25 13.5t-41.5 9.5t-57.5 9h-53t-79.5 0.5t-78.5 0.5h-53h-68t-84 -0.5t-74 -0.5h-35q-8 0 -34.5 -1.5t-56.5 -3.5 t-57.5 -3.5t-35.5 -1.5h-20h-32h-33h-18q-40 -5 -47.5 -14.5t-7.5 -21.5q0 -17 20 -24.5t35 -23.5q8 0 28 4.5t25 6.5t12.5 15.5t12.5 15.5q5 1 19 -0.5t29 -3.5t29 -4.5t19 -2.5q0 -7 -4 -10.5t-7.5 -5.5t-7.5 -4t-4 -6zM963 302h53v-21h-53v21z" />
<glyph unicode="&#x202f;" horiz-adv-x="162" />
<glyph unicode="&#x205f;" horiz-adv-x="203" />
<glyph unicode="&#xe000;" horiz-adv-x="575" d="M0 575h575v-575h-575v575z" />
</font>
</defs>
</svg>
